<?xml version="1.0" standalone="no"?>
<!DOCTYPE svg PUBLIC "-//W3C//DTD SVG 1.1//EN" "http://www.w3.org/Graphics/SVG/1.1/DTD/svg11.dtd" >
<svg xmlns="http://www.w3.org/2000/svg" xmlns:xlink="http://www.w3.org/1999/xlink" version="1.1">
<metadata>
Created by FontForge 20170731 at Mon Jan 18 07:24:02 2021
 By Aleksey,,,
Copyright 2017 The Barlow Project Authors (https://github.com/jpt/barlow)
</metadata>
<defs>
<font id="Barlow-LightItalic" horiz-adv-x="1067" >
  <font-face 
    font-family="Barlow Light"
    font-weight="300"
    font-style="italic"
    font-stretch="normal"
    units-per-em="2048"
    panose-1="0 0 4 0 0 0 0 0 0 0"
    ascent="1638"
    descent="-410"
    x-height="1032"
    cap-height="1434"
    bbox="-1061.15 -428 2228.28 2007"
    underline-thickness="102"
    underline-position="-307"
    slope="-7"
    unicode-range="U+000D-25CA"
  />
<missing-glyph horiz-adv-x="802" 
d="M-39 8q0 -8 6 -8h789q8 0 8 8l174 1417q0 9 -6 9h-789q-8 0 -8 -9zM389 467q-10 0 -16 7t-4 18l10 86q5 43 27.5 79.5t52 59.5t64 50t64.5 52t52.5 64.5t28.5 87.5q9 79 -33.5 127.5t-120.5 48.5q-79 0 -134.5 -49t-66.5 -129l-4 -39q-1 -10 -9 -17.5t-17 -7.5l-29 2
q-10 0 -16.5 7t-4.5 18l5 37q13 112 92 181t192 69q114 0 174 -67.5t47 -182.5q-9 -68 -40 -120.5t-69.5 -84.5t-76.5 -59.5t-66 -60t-32 -71.5l-10 -81q-1 -10 -9.5 -17.5t-17.5 -7.5h-33zM377 186q-33 0 -52 22.5t-14 53.5q3 31 27.5 52.5t56.5 21.5q30 0 49 -22t15 -52
q-3 -31 -28 -53.5t-54 -22.5z" />
    <glyph glyph-name="I_J.liga" unicode="IJ" horiz-adv-x="1658" 
d="M186 0q-10 0 -16 7t-4 18l170 1384q4 25 26 25h58q10 0 16 -7t4 -18l-170 -1384q0 -10 -7.5 -17.5t-18.5 -7.5h-58zM973 -16q-198 0 -304 114t-83 303l12 99q2 11 9.5 17.5t17.5 6.5h57q23 0 20 -24l-12 -99q-17 -145 63.5 -233t231.5 -88q152 0 255 88t120 233l125 1008
q4 25 26 25h58q10 0 16 -7t4 -18l-123 -1008q-23 -189 -158.5 -303t-334.5 -114z" />
    <glyph glyph-name="f_f_i.liga" unicode="ffi" horiz-adv-x="1832" 
d="M426 1106l-8 -66q0 -8 6 -8h248q9 0 15 -7t5 -17l-6 -43q-4 -25 -27 -25h-245q-7 0 -11 -8l-110 -907q-4 -25 -27 -25h-55q-10 0 -16.5 7t-4.5 18l111 907q0 8 -6 8h-123q-11 0 -17 7.5t-5 17.5l6 43q3 24 26 24h123q6 0 10 8l9 72q10 82 31 139.5t60 100t101 63
t150 19.5h45q10 0 16 -7t4 -18l-4 -33q-2 -11 -9.5 -17.5t-17.5 -6.5h-45q-117 -1 -165.5 -60.5t-63.5 -185.5zM989 1112q10 82 31 139.5t60.5 100t101.5 63t149 19.5h47q10 0 16.5 -7t4.5 -18l-4 -33q-2 -11 -9.5 -17.5t-17.5 -6.5h-47q-60 -1 -102 -17t-67.5 -49.5
t-39 -75.5t-20.5 -104l-9 -66q0 -8 7 -8h235q11 0 16.5 -7t4.5 -17l-7 -43q0 -10 -7.5 -17.5t-18.5 -7.5h-234q-6 0 -10 -8l-111 -907q-4 -25 -26 -25h-55q-10 0 -16.5 7t-4.5 18l111 907q0 8 -6 8h-160q-10 0 -16.5 7t-4.5 18l4 43q1 10 9.5 17t19.5 7h158q6 0 10 8z
M1729 1417q41 0 62.5 -25.5t16.5 -64.5t-33 -64.5t-67 -25.5q-41 0 -64 25.5t-18 64.5q6 39 35 64.5t68 25.5zM1526 0q-10 0 -16.5 7t-4.5 18l121 983q2 11 9.5 17.5t17.5 6.5h57q11 0 16.5 -7t4.5 -17l-121 -983q-4 -25 -27 -25h-57z" />
    <glyph glyph-name="f_f_l.liga" unicode="ffl" horiz-adv-x="1806" 
d="M426 1106l-8 -66q0 -8 6 -8h272q11 0 16.5 -7t4.5 -17l-4 -43q-4 -25 -27 -25h-272q-7 0 -11 -8l-110 -907q-4 -25 -27 -25h-55q-10 0 -16.5 7t-4.5 18l111 907q0 8 -6 8h-123q-11 0 -17 7.5t-5 17.5l6 43q3 24 26 24h123q6 0 10 8l9 72q10 82 31 139.5t60 100t101 63
t150 19.5h45q10 0 16 -7t4 -18l-4 -33q-2 -11 -9.5 -17.5t-17.5 -6.5h-45q-117 -1 -165.5 -60.5t-63.5 -185.5zM989 1112q10 82 31 139.5t60.5 100t101.5 63t149 19.5h47q10 0 16.5 -7t4.5 -18l-4 -33q-2 -11 -9.5 -17.5t-17.5 -6.5h-47q-60 -1 -102 -17t-67.5 -49.5
t-39 -75.5t-20.5 -104l-9 -66q0 -8 7 -8h235q11 0 16.5 -7t4.5 -17l-7 -43q0 -10 -7.5 -17.5t-18.5 -7.5h-234q-6 0 -10 -8l-111 -907q-4 -25 -26 -25h-55q-10 0 -16.5 7t-4.5 18l111 907q0 8 -6 8h-160q-10 0 -16.5 7t-4.5 18l4 43q1 10 9.5 17t19.5 7h158q6 0 10 8z
M1659 1409q4 25 27 25h57q10 0 16 -7t4 -18l-170 -1384q0 -10 -7.5 -17.5t-18.5 -7.5h-58q-10 0 -16 7t-4 18z" />
    <glyph glyph-name="f_i.liga" unicode="fi" horiz-adv-x="1173" 
d="M326 1098q11 90 32 150t60.5 103.5t100 63t149.5 19.5h47q10 0 16 -7t4 -18l-6 -47q-4 -25 -27 -25h-38q-119 0 -168.5 -57t-65.5 -186l-6 -54q0 -8 6 -8h229q11 0 16.5 -7t4.5 -17l-6 -52q-2 -11 -9.5 -17.5t-17.5 -6.5h-229q-8 0 -8 -8l-111 -899q-4 -25 -27 -25h-57
q-10 0 -16 7t-4 18l108 899q1 3 -1 5.5t-5 2.5h-127q-23 0 -20 24l6 52q3 24 26 24h127q8 0 8 8zM1067 1417q41 0 64 -24.5t18 -63.5q-5 -38 -33.5 -64t-68.5 -26q-39 0 -62.5 26t-17.5 64q4 38 33 63t67 25zM866 0q-10 0 -16 7t-4 18l121 983q3 24 26 24h58q23 0 20 -24
l-121 -983q-4 -25 -26 -25h-58z" />
    <glyph glyph-name="f_l.liga" unicode="fl" horiz-adv-x="1144" 
d="M326 1098q11 90 32 150t60.5 103.5t100 63t149.5 19.5h47q10 0 16 -7t4 -18l-6 -47q-4 -25 -27 -25h-38q-119 0 -168.5 -57t-65.5 -186l-6 -54q0 -8 6 -8h229q11 0 16.5 -7t4.5 -17l-6 -52q-2 -11 -9.5 -17.5t-17.5 -6.5h-229q-8 0 -8 -8l-111 -899q-4 -25 -27 -25h-57
q-10 0 -16 7t-4 18l108 899q1 3 -1 5.5t-5 2.5h-127q-23 0 -20 24l6 52q3 24 26 24h127q8 0 8 8zM999 1409q4 25 27 25h57q10 0 16.5 -7t4.5 -18l-170 -1384q0 -10 -8 -17.5t-19 -7.5h-57q-10 0 -16.5 7t-4.5 18z" />
    <glyph glyph-name="g_j.liga" unicode="gj" horiz-adv-x="1511" 
d="M1421 1415q41 0 64.5 -24t17.5 -64q-5 -40 -33 -64t-71 -24q-40 0 -62 24t-18 64t34 64t68 24zM854 909q3 -4 6.5 -2.5t3.5 6.5l13 95q3 24 26 24h58q23 0 20 -24l-121 -985q-28 -230 -174.5 -335t-390.5 -96q-11 2 -16.5 9.5t-4.5 17.5l9 51q4 26 28 23q209 -6 316 75
t129 257l12 102q1 6 -2 7.5t-6 -3.5q-111 -141 -291 -141q-129 0 -217 72.5t-105 199.5q-10 80 9 252q24 183 57 264q47 121 149.5 196t233.5 75q181 0 258 -140zM1180 -113l137 1121q1 10 9 17t17 7h60q9 0 15 -7t5 -17l-137 -1121q-20 -154 -109.5 -233t-242.5 -82
q-10 0 -16.5 7t-4.5 18l7 45q3 24 26 24q97 6 159.5 63t74.5 158zM780 301q16 53 37 215q19 168 17 219q-5 93 -66 155t-164 62q-104 0 -182.5 -61.5t-114.5 -155.5q-28 -72 -45 -217q-17 -150 -8 -217q9 -94 74.5 -155.5t169.5 -61.5q105 0 179.5 62t102.5 155z" />
    <glyph glyph-name="i_j.liga" unicode="ij" horiz-adv-x="925" 
d="M352 1239q-38 0 -61 26t-19 64t34 63t69 25q40 0 62.5 -25t17.5 -63t-34 -64t-69 -26zM813 1237q-40 0 -61.5 25t-16.5 65q4 40 33.5 65t67.5 25q40 0 63 -24.5t19 -65.5q-5 -40 -33.5 -65t-71.5 -25zM172 0q-9 0 -15 7.5t-5 17.5l120 983q2 11 9.5 17.5t17.5 6.5h57
q23 0 23 -24l-121 -983q-1 -10 -9.5 -17.5t-17.5 -7.5h-59zM346 -428q-10 0 -16 7t-4 18l6 45q3 24 26 24q104 4 165 61t73 160l137 1121q1 10 9.5 17t17.5 7h57q23 0 23 -24l-140 -1121q-19 -156 -106 -234t-248 -81z" />
    <glyph glyph-name="hyphen_hyphen.liga" unicode="&#x2d;&#x2d;" horiz-adv-x="1374" 
d="M139 580q-23 0 -20 24l4 47q1 10 9.5 17.5t17.5 7.5h1163q10 0 16 -7t4 -18l-6 -47q-2 -11 -9.5 -17.5t-17.5 -6.5h-1161z" />
    <glyph glyph-name=".notdef" horiz-adv-x="802" 
d="M-39 8q0 -8 6 -8h789q8 0 8 8l174 1417q0 9 -6 9h-789q-8 0 -8 -9zM389 467q-10 0 -16 7t-4 18l10 86q5 43 27.5 79.5t52 59.5t64 50t64.5 52t52.5 64.5t28.5 87.5q9 79 -33.5 127.5t-120.5 48.5q-79 0 -134.5 -49t-66.5 -129l-4 -39q-1 -10 -9 -17.5t-17 -7.5l-29 2
q-10 0 -16.5 7t-4.5 18l5 37q13 112 92 181t192 69q114 0 174 -67.5t47 -182.5q-9 -68 -40 -120.5t-69.5 -84.5t-76.5 -59.5t-66 -60t-32 -71.5l-10 -81q-1 -10 -9.5 -17.5t-17.5 -7.5h-33zM377 186q-33 0 -52 22.5t-14 53.5q3 31 27.5 52.5t56.5 21.5q30 0 49 -22t15 -52
q-3 -31 -28 -53.5t-54 -22.5z" />
    <glyph glyph-name=".null" horiz-adv-x="0" 
 />
    <glyph glyph-name="nonmarkingreturn" horiz-adv-x="682" 
 />
    <glyph glyph-name="CR" unicode="&#xd;" horiz-adv-x="397" 
 />
    <glyph glyph-name="space" unicode=" " horiz-adv-x="397" 
 />
    <glyph glyph-name="exclam" unicode="!" horiz-adv-x="628" 
d="M309 461q-23 0 -20 24l106 924q4 25 27 25h57q10 0 16.5 -7t6.5 -18l-123 -924q-2 -11 -9.5 -17.5t-17.5 -6.5h-43zM268 8q-44 0 -71 31.5t-21 77.5q4 43 40.5 74.5t78.5 31.5q44 0 73 -31t23 -75q-4 -45 -40.5 -77t-82.5 -32z" />
    <glyph glyph-name="quotedbl" unicode="&#x22;" horiz-adv-x="473" 
d="M186 1010q-22 0 -22 24l33 361q1 10 9 17t17 7h62q22 0 22 -24l-57 -361q-2 -11 -9.5 -17.5t-17.5 -6.5h-37zM420 1010q-11 0 -16.5 7t-4.5 17l33 361q2 11 9.5 17.5t17.5 6.5h61q11 0 16.5 -7t4.5 -17l-56 -361q-1 -10 -9 -17t-19 -7h-37z" />
    <glyph glyph-name="numbersign" unicode="#" horiz-adv-x="1294" 
d="M1210 918q0 -10 -7.5 -17.5t-18.5 -7.5h-146q-9 0 -12 -8l-96 -359q-4 -8 4 -8h133q23 0 20 -24l-8 -48q-3 -24 -26 -24h-146q-10 0 -10 -8l-98 -363q-5 -22 -29 -22l-57 2q-25 0 -19 26l99 357q0 8 -7 8h-346q-10 0 -10 -8l-98 -363q-6 -22 -29 -22l-57 2q-26 0 -19 26
l99 357q0 8 -7 8h-126q-11 0 -16.5 7t-4.5 17l8 48q2 11 9.5 17.5t17.5 6.5h139q10 0 10 8l99 359q0 8 -6 8h-127q-9 0 -15.5 7.5t-5.5 17.5l8 47q2 11 9.5 17.5t17.5 6.5h139q10 0 10 8l99 365q6 22 28 22l58 -2q25 0 18 -28l-96 -357q-4 -8 4 -8h346q10 0 10 8l99 365
q5 22 28 22l58 -2q25 0 18 -28l-96 -357q-4 -8 4 -8h133q11 0 16.5 -7t4.5 -17zM813 518q10 0 10 8l99 359q0 8 -7 8h-344q-9 0 -12 -8l-96 -359q-4 -8 4 -8h346z" />
    <glyph glyph-name="dollar" unicode="$" horiz-adv-x="1081" 
d="M967 352q-19 -160 -131 -259.5t-299 -108.5q-9 0 -9 -9l-16 -122q-4 -25 -27 -25h-30q-11 0 -17.5 7.5t-5.5 17.5l19 124q0 9 -7 9q-167 15 -251.5 110t-65.5 246l10 78q2 11 9.5 17.5t17.5 6.5h53q11 0 16.5 -7t4.5 -17l-7 -58q-15 -127 62 -204.5t231 -77.5
q148 0 235 71.5t101 194.5q5 40 -1.5 74t-26.5 64t-46.5 56t-68 54t-85.5 54t-104 61q-4 2 -6.5 3.5t-5.5 3t-6 3.5q-67 37 -106 61.5t-79 59t-58.5 69t-27 82.5t-1.5 107q20 156 116.5 246.5t257.5 103.5q7 0 11 8l14 135q4 25 27 25h30q10 0 16.5 -7t6.5 -18l-19 -133
q-4 -8 7 -8q185 -7 274 -105.5t68 -259.5l-7 -55q-3 -24 -26 -24h-58q-23 0 -20 24l4 37q15 130 -58 208.5t-227 78.5q-136 0 -217 -64.5t-96 -185.5q-2 -25 -2 -45.5t5.5 -39.5t12.5 -35t19 -31t25.5 -28t31.5 -26t37 -24.5t42.5 -24t47.5 -24.5t53 -26q27 -13 41 -20
q181 -92 255.5 -188.5t56.5 -239.5z" />
    <glyph glyph-name="percent" unicode="%" horiz-adv-x="1695" 
d="M551 887q-116 0 -187.5 83t-56.5 201q13 117 105.5 200t208.5 83q114 0 184 -83t55 -200q-13 -118 -104 -201t-205 -83zM410 0q-13 0 -17 8.5t4 20.5l920 1388q10 17 31 17h32q12 0 16 -8.5t-3 -20.5l-918 -1389q-13 -16 -33 -16h-32zM559 956q86 0 152 62.5t77 152.5
q11 88 -40.5 149.5t-137.5 61.5t-153 -61.5t-78 -149.5q-12 -91 40 -153t140 -62zM1178 -20q-117 0 -187.5 82.5t-56.5 201.5q15 119 105.5 201t207.5 82q115 0 185.5 -83t56.5 -200q-15 -119 -105.5 -201.5t-205.5 -82.5zM1186 51q86 0 153 62.5t78 150.5q10 89 -41.5 151
t-136.5 62q-86 0 -154.5 -62t-78.5 -151q-11 -89 41.5 -151t138.5 -62z" />
    <glyph glyph-name="ampersand" unicode="&#x26;" horiz-adv-x="1292" 
d="M1116 29q8 -11 2.5 -20t-20.5 -9h-66q-18 0 -26 14l-107 156q-4 8 -12 0q-108 -99 -207.5 -142.5t-218.5 -43.5q-174 0 -267 83.5t-73 239.5q8 61 32.5 117.5t55.5 99.5t80 88t90 76.5t100 71.5q6 3 2 10q-101 149 -130.5 224t-20.5 149q17 138 114 222.5t238 84.5
q145 0 225.5 -82t65.5 -215q-8 -66 -37.5 -123.5t-82 -109t-99 -87t-121.5 -85.5q-9 -4 -2 -11q74 -112 186 -268q58 -84 90 -137q5 -5 13 0q78 88 151 176q19 19 35 6l37 -25q20 -13 4 -32q-71 -90 -176 -203q-4 -8 6 -23q43 -63 139 -202zM674 1348q-97 0 -162.5 -55
t-77.5 -150q-6 -55 19.5 -117t115.5 -199q3 -6 11 -2q130 86 202.5 161t83.5 167q10 89 -43 142t-149 53zM487 80q93 3 175 42.5t172 123.5q5 5 2 12q-114 164 -138 195l-157 227q-3 6 -11 2q-65 -45 -108 -79.5t-88.5 -81t-72 -97.5t-34.5 -109q-15 -115 55 -177.5
t205 -57.5z" />
    <glyph glyph-name="quotesingle" unicode="'" horiz-adv-x="241" 
d="M186 1020q-23 0 -20 24l33 361q4 25 26 25h66q10 0 16 -7t4 -18l-55 -361q-1 -10 -9.5 -17t-17.5 -7h-43z" />
    <glyph glyph-name="parenleft" unicode="(" horiz-adv-x="473" 
d="M152 -219q-20 0 -25 16q-72 152 -99.5 379t1.5 486q31 255 118 493t199 393q11 17 31 17h53q14 0 17.5 -8.5t-5.5 -20.5q-101 -159 -180.5 -391.5t-109.5 -478.5q-29 -257 -7 -479.5t86 -376.5q5 -12 -1 -20.5t-19 -8.5h-59z" />
    <glyph glyph-name="parenright" unicode=")" horiz-adv-x="473" 
d="M217 -203q-8 -16 -29 -16h-59q-13 0 -16.5 8.5t4.5 20.5q101 156 180 384.5t109 471.5q28 261 6 486.5t-84 383.5q-6 12 0 20.5t18 8.5h55q19 0 25 -17q75 -154 103 -388t-3 -498q-30 -249 -114.5 -481t-194.5 -384z" />
    <glyph glyph-name="asterisk" unicode="*" horiz-adv-x="788" 
d="M440 805q-23 0 -20 24l33 263q0 4 -4 6t-7 0l-243 -135q-23 -13 -33 10l-10 22q-6 19 14 33l246 133q3 1 3 6t-3 7l-211 133q-18 12 -4 32l12 23q14 24 35 10l213 -135q2 -2 5.5 0t4.5 6l31 262q2 11 10 18t18 7h25q10 0 16 -7t4 -18l-30 -262q-1 -4 2 -6t6 0l246 135
q19 12 30 -10l9 -23q10 -19 -13 -32l-243 -133q-3 -2 -4 -6.5t2 -6.5l213 -133q17 -14 4 -33l-17 -22q-14 -24 -35 -10l-208 135q-3 2 -7 0t-4 -6l-32 -263q-1 -10 -9.5 -17t-17.5 -7h-27z" />
    <glyph glyph-name="plus" unicode="+" horiz-adv-x="1001" 
d="M940 694q11 0 16.5 -7t4.5 -17l-7 -45q-4 -25 -26 -25h-340q-8 0 -8 -8l-43 -342q-4 -25 -27 -25h-43q-10 0 -16.5 7t-4.5 18l41 342q0 8 -6 8h-340q-10 0 -16 7t-4 18l4 45q1 10 9.5 17t19.5 7h338q10 0 10 8l43 361q1 10 9 17t19 7h43q11 0 16.5 -7t4.5 -17l-45 -361
q0 -8 8 -8h340z" />
    <glyph glyph-name="comma" unicode="," horiz-adv-x="524" 
d="M113 -152q-28 0 -19 27l144 418q3 22 26 22h49q28 0 19 -26l-158 -420q-9 -21 -31 -21h-30z" />
    <glyph glyph-name="hyphen" unicode="-" horiz-adv-x="776" 
d="M141 596q-10 0 -16 7t-4 18l4 47q1 10 9.5 17t17.5 7h563q23 0 20 -24l-6 -47q-4 -25 -27 -25h-561z" />
    <glyph glyph-name="period" unicode="." horiz-adv-x="546" 
d="M229 8q-45 0 -72 32t-22 77q6 44 42.5 75t78.5 31q43 0 71.5 -31t24.5 -75q-6 -44 -42.5 -76.5t-80.5 -32.5z" />
    <glyph glyph-name="slash" unicode="/" horiz-adv-x="665" 
d="M51 0q-12 0 -16.5 8.5t0.5 20.5l590 1384q11 21 28 21h58q12 0 16.5 -8.5t-0.5 -20.5l-590 -1385q-7 -20 -28 -20h-58z" />
    <glyph glyph-name="zero" unicode="0" horiz-adv-x="1118" 
d="M514 -20q-183 0 -279.5 109t-74.5 292l82 672q23 182 146 290.5t306 108.5q186 0 285 -109t76 -290l-82 -672q-23 -183 -148.5 -292t-310.5 -109zM526 78q138 0 230.5 80.5t109.5 214.5l84 686q17 134 -56 215.5t-212 81.5q-133 0 -225 -81.5t-109 -215.5l-84 -686
q-17 -133 55.5 -214t206.5 -81z" />
    <glyph glyph-name="one" unicode="1" horiz-adv-x="688" 
d="M500 1425q15 9 30 9h66q9 0 15 -7.5t5 -17.5l-170 -1384q-1 -10 -9 -17.5t-17 -7.5h-58q-22 0 -22 25l158 1282q1 4 -2.5 6t-6.5 0l-233 -105q-12 -6 -20 0t-7 19l7 39q0 19 18 30z" />
    <glyph glyph-name="two" unicode="2" horiz-adv-x="1052" 
d="M109 0q-9 0 -15.5 7.5t-5.5 17.5l6 51q3 18 15 30q161 178 526 592q216 252 233 396q15 117 -52 188.5t-191 71.5q-122 0 -205.5 -71.5t-95.5 -188.5l-9 -62q-3 -24 -26 -24h-58q-23 0 -20 24l8 74q20 154 136.5 249t281.5 95q172 0 265.5 -99t74.5 -255
q-20 -172 -244 -432q-405 -461 -493 -558q-7 -10 2 -10h637q9 0 15 -7t5 -17l-6 -47q-4 -25 -27 -25h-757z" />
    <glyph glyph-name="three" unicode="3" horiz-adv-x="1011" 
d="M874 676q26 -110 9 -244q-11 -106 -52 -196q-53 -123 -151 -187.5t-234 -64.5q-137 0 -222.5 74t-104.5 200q-9 70 -2 145q3 25 26 25h60q25 0 22 -25q-7 -65 -4 -108q9 -98 71.5 -156.5t166.5 -58.5q191 0 272 178q35 74 47 176q16 132 -10 213q-45 160 -221 160
q-28 0 -58 -10q-22 -6 -32 10l-23 33q-10 17 4 34l410 453q2 2 2.5 4.5t-0.5 4t-4 1.5h-582q-10 0 -16 7t-4 18l4 47q1 10 9 17.5t17 7.5h703q10 0 16 -7t4 -18l-6 -55q-3 -16 -14 -31l-385 -432q-3 -3 -1.5 -6.5t7.5 -3.5q221 -9 276 -205z" />
    <glyph glyph-name="four" unicode="4" 
d="M938 500q10 0 16 -7t4 -18l-6 -49q-4 -25 -26 -25h-80q-8 0 -8 -8l-45 -368q-1 -10 -9.5 -17.5t-19.5 -7.5h-57q-9 0 -15.5 7.5t-5.5 17.5l45 368q1 3 -1 5.5t-5 2.5h-586q-10 0 -16 7t-4 18l4 45q4 22 10 31l529 913q13 19 30 19h58q30 0 14 -29l-516 -895q-5 -10 4 -10
h485q8 0 8 8l43 344q4 25 27 25h57q10 0 16.5 -7t4.5 -18l-41 -344q-1 -3 1 -5.5t5 -2.5h80z" />
    <glyph glyph-name="five" unicode="5" horiz-adv-x="1009" 
d="M922 621q3 -69 -9 -183q-14 -109 -32 -166q-47 -132 -156 -210t-248 -78q-136 0 -223.5 74t-106.5 196q-4 27 -4 80q0 24 27 24h59q21 0 21 -20v-8q0 -25 2 -35q9 -97 71.5 -155t165.5 -58q105 0 183 61.5t110 167.5q14 35 27 125q8 74 6 144q0 103 -65.5 158t-174.5 55
q-94 0 -169.5 -41.5t-110.5 -116.5q-9 -21 -29 -21h-65q-10 0 -16.5 7t-4.5 18l94 770q4 25 27 25h653q10 0 16.5 -7t4.5 -18l-4 -47q-1 -10 -9.5 -17.5t-19.5 -7.5h-563q-8 0 -8 -8l-70 -549q-2 -5 1 -5.5t7 3.5q54 52 131 81.5t160 29.5q137 0 225 -69.5t97 -198.5z" />
    <glyph glyph-name="six" unicode="6" horiz-adv-x="1011" 
d="M911 649q21 -72 4 -213q-16 -130 -47 -194q-55 -122 -151.5 -190t-231.5 -68q-139 0 -226 71t-107 197q-11 68 4 188l80 645q20 167 135 266t280 99q161 0 249 -95.5t69 -250.5l-2 -17q-1 -10 -9.5 -17t-17.5 -7h-59q-9 0 -15.5 5.5t-5.5 12.5l2 17q14 114 -47.5 185
t-175.5 71q-116 0 -200 -74.5t-99 -198.5l-41 -331q-1 -4 0 -5.5t3.5 -0.5t4.5 4q105 139 295 139q256 0 309 -238zM776 283q21 55 35 153q12 114 0 160q-11 88 -71.5 141.5t-161.5 53.5q-100 0 -174 -54t-107 -143q-27 -68 -37 -162q-12 -102 -2 -149q8 -89 70 -145
t166 -56q95 0 170 51t112 150z" />
    <glyph glyph-name="seven" unicode="7" horiz-adv-x="927" 
d="M283 0q-30 0 -17 29l623 1298q2 3 0 6.5t-6 3.5h-578q-8 0 -8 -8l-12 -88q0 -10 -8 -17t-19 -7h-43q-23 0 -20 24l20 168q4 25 27 25h751q9 0 15.5 -7.5t5.5 -17.5l-8 -55q0 -4 -9 -31l-620 -1303q-9 -20 -29 -20h-65z" />
    <glyph glyph-name="eight" unicode="8" horiz-adv-x="1021" 
d="M756 774q-9 -6 0 -12q94 -50 129 -166q26 -79 10 -199q-17 -148 -88 -247q-56 -79 -144.5 -122.5t-197.5 -43.5q-230 0 -303 178q-46 97 -27 237q11 109 64 203q63 109 170 162q9 6 0 12q-70 37 -109 107q-54 88 -39 204q12 110 76 193q57 82 148 127t200 45
q238 0 311 -182q38 -80 23 -183q-12 -115 -86 -202q-56 -68 -137 -111zM352 922q62 -112 207 -115h8q153 0 246 121q52 68 64 153q8 73 -19 140q-58 137 -227 137q-81 0 -148 -37t-108 -100q-42 -63 -51 -142q-12 -89 28 -157zM715 193q62 84 76 213q11 81 -5 151
q-21 79 -80 122.5t-151 43.5q-177 0 -264 -158q-35 -61 -49 -164q-15 -122 20 -202q57 -121 215 -121q153 0 238 115z" />
    <glyph glyph-name="nine" unicode="9" horiz-adv-x="1030" 
d="M975 1182q12 -75 -2 -189l-80 -645q-20 -166 -135.5 -265t-280.5 -99q-161 0 -248.5 95.5t-68.5 250.5l2 16q4 25 26 25h58q22 0 22 -17l-2 -18q-14 -114 47.5 -185t175.5 -71q115 0 199.5 74.5t99.5 197.5l41 332q0 4 -1.5 5.5t-4 0.5t-4.5 -4q-102 -139 -293 -139
q-255 0 -311 237q-19 64 -4 213q16 133 49 195q53 121 150.5 189.5t232.5 68.5q140 0 226.5 -71t105.5 -197zM549 643q100 0 174 54t106 143q24 55 39 161q11 94 2 150q-9 90 -70 145.5t-165 55.5q-95 0 -170.5 -51t-112.5 -150q-24 -53 -35 -154q-14 -105 0 -159
q11 -88 71.5 -141.5t160.5 -53.5z" />
    <glyph glyph-name="colon" unicode=":" horiz-adv-x="659" 
d="M379 727q-45 0 -72 32t-22 77q6 44 42.5 75t78.5 31q44 0 73 -31t23 -75q-4 -44 -41 -76.5t-82 -32.5zM295 33q-45 0 -72.5 31.5t-21.5 76.5q4 44 40 75.5t78 31.5q45 0 74 -31.5t23 -75.5q-4 -44 -40.5 -76t-80.5 -32z" />
    <glyph glyph-name="semicolon" unicode=";" horiz-adv-x="614" 
d="M362 727q-45 0 -72.5 32t-21.5 77q4 44 40.5 75t80.5 31t73 -31t23 -75q-5 -44 -41 -76.5t-82 -32.5zM176 -143q-24 0 -18 26l104 400q3 22 27 22h55q22 0 16 -26l-122 -400q-6 -22 -29 -22h-33z" />
    <glyph glyph-name="less" unicode="&#x3c;" horiz-adv-x="1001" 
d="M893 127q-1 -13 -10 -18.5t-19 0.5l-741 383q-17 9 -14 28l6 62q3 20 22 28l836 383q12 6 19 1t5 -19l-6 -57q-3 -20 -22 -29l-742 -332q-11 -6 -2 -12l662 -332q17 -10 14 -29z" />
    <glyph glyph-name="equal" unicode="=" horiz-adv-x="1001" 
d="M170 827q-10 0 -16.5 7t-6.5 18l7 45q4 25 26 25h787q22 0 22 -25l-6 -45q-1 -10 -9.5 -17.5t-17.5 -7.5h-786zM117 393q-10 0 -16.5 7t-6.5 18l6 45q2 11 9.5 17.5t17.5 6.5h786q11 0 16.5 -7t4.5 -17l-4 -45q-1 -10 -9.5 -17.5t-17.5 -7.5h-786z" />
    <glyph glyph-name="greater" unicode="&#x3e;" horiz-adv-x="1001" 
d="M84 109q-12 -6 -19.5 -1t-5.5 19l7 57q3 20 22 29l741 332q13 7 2 12l-661 332q-14 8 -14 29l8 57q1 13 10 18.5t19 -0.5l743 -383q14 -8 14 -28l-8 -62q-3 -20 -22 -28z" />
    <glyph glyph-name="question" unicode="?" horiz-adv-x="884" 
d="M385 399q-10 0 -16 7t-4 18l14 129q7 53 31 97t57.5 76t73 62t79 61t73 65.5t58 83t31.5 106.5q13 112 -46 180t-169 68q-113 0 -190 -68.5t-90 -181.5l-8 -66q-3 -24 -27 -24l-57 2q-10 0 -16.5 7.5t-4.5 18.5l6 62q20 157 131 253.5t271 96.5q158 0 242 -95t65 -255
q-12 -95 -55.5 -168t-97.5 -118t-107.5 -83t-94 -84.5t-47.5 -101.5l-14 -123q-4 -25 -27 -25h-61zM375 6q-44 0 -71 31t-21 74q4 43 38.5 73.5t77.5 30.5q42 0 70.5 -31t22.5 -73q-4 -42 -39.5 -73.5t-77.5 -31.5z" />
    <glyph glyph-name="at" unicode="@" horiz-adv-x="1648" 
d="M1016 1241q147 0 262.5 -52.5t182 -146t87.5 -222t-20 -279.5q-45 -183 -146.5 -286t-230.5 -103q-142 0 -184 114q-4 11 -11 0q-85 -114 -231 -114q-102 0 -159.5 53.5t-57.5 140.5q2 57 31 178q34 131 59 181q39 88 119 140t172 52q115 0 166 -84q2 -3 4.5 -4t4 0.5
t1.5 5.5l12 49q6 23 27 23h33q11 0 16 -7.5t2 -19.5l-106 -434q-20 -87 13.5 -143t106.5 -56q89 0 163 82t112 228q48 193 5.5 332.5t-161.5 216.5t-289 77q-95 0 -191.5 -25.5t-190.5 -80t-170 -132.5t-131.5 -192.5t-75.5 -249.5q-18 -127 1.5 -235.5t74 -189t149.5 -126
t221 -45.5q97 0 192.5 23.5t151.5 58.5q21 14 33 -4l12 -20q14 -21 -8 -33q-69 -48 -180.5 -76.5t-220.5 -28.5q-114 0 -207 34t-155.5 95.5t-102 147.5t-47.5 191t8 225q21 143 82.5 266t147.5 209t191 147t215 90t218 29zM739 227q69 0 124 42t83 106q22 49 47 151
q27 114 27 152q8 63 -29 104t-106 41t-127.5 -40.5t-89.5 -102.5q-19 -39 -47 -156q-29 -112 -29 -149q-5 -67 34.5 -107.5t112.5 -40.5z" />
    <glyph glyph-name="A" unicode="A" horiz-adv-x="1171" 
d="M975 0q-20 0 -23 20l-53 269q0 6 -6 6h-621q-6 0 -8 -6l-117 -269q-10 -20 -28 -20h-64q-12 0 -17 8t1 21l612 1384q7 21 27 21h86q18 0 22 -21l275 -1384q3 -13 -4.5 -21t-20.5 -8h-61zM309 395q-2 -3 0 -6.5t6 -3.5h557q4 0 7.5 3.5t1.5 6.5l-172 897q0 4 -5 4t-8 -4z
" />
    <glyph glyph-name="B" unicode="B" horiz-adv-x="1249" 
d="M922 748q-4 -2 -4 -5t4 -4q102 -46 148.5 -136.5t31.5 -215.5q-21 -180 -144.5 -283.5t-304.5 -103.5h-467q-10 0 -16 7t-4 18l170 1384q4 25 26 25h453q185 0 280.5 -98.5t73.5 -272.5q-13 -114 -77 -194.5t-170 -120.5zM440 1337q-8 0 -8 -8l-67 -536q0 -9 8 -9h362
q136 0 225.5 74.5t104.5 198.5q15 128 -55 204t-205 76h-365zM666 98q134 0 225 81t106 214q17 136 -55.5 217.5t-212.5 81.5h-369q-8 0 -8 -8l-71 -578q0 -8 8 -8h377z" />
    <glyph glyph-name="C" unicode="C" horiz-adv-x="1206" 
d="M569 -18q-205 0 -314.5 122t-84.5 322l72 584q25 198 164 319t344 121q203 0 313.5 -119.5t85.5 -314.5q0 -10 -8 -17.5t-19 -7.5l-57 -2q-23 0 -23 12l2 13q19 153 -65 246.5t-240 93.5q-158 0 -265.5 -93t-127.5 -247l-72 -594q-19 -154 65.5 -248t242.5 -94
q157 0 263.5 94t125.5 248q3 22 26 22l58 -2q11 0 17 -3t5 -7v-10q-25 -196 -165 -317t-343 -121z" />
    <glyph glyph-name="D" unicode="D" horiz-adv-x="1226" 
d="M186 0q-10 0 -16 7t-4 18l170 1384q4 25 26 25h457q191 0 290 -103.5t77 -281.5l-82 -664q-22 -178 -146 -281.5t-315 -103.5h-457zM281 104q0 -8 8 -8h373q138 0 228 80.5t109 220.5l80 639q17 140 -54 220.5t-212 80.5h-373q-8 0 -8 -8z" />
    <glyph glyph-name="E" unicode="E" horiz-adv-x="1214" 
d="M1217 1362q-1 -10 -9.5 -17.5t-17.5 -7.5h-750q-8 0 -8 -8l-70 -553q0 -8 9 -8h530q10 0 16.5 -7t4.5 -18l-7 -47q-3 -24 -26 -24h-531q-8 0 -8 -8l-69 -560q0 -8 8 -8h747q11 0 16.5 -7t4.5 -17l-4 -47q-1 -10 -9.5 -17.5t-17.5 -7.5h-840q-10 0 -16 7t-4 18l170 1384
q4 25 26 25h838q10 0 16.5 -7t6.5 -18z" />
    <glyph glyph-name="F" unicode="F" horiz-adv-x="1132" 
d="M1214 1362q-4 -25 -26 -25h-748q-8 0 -8 -8l-70 -553q0 -8 9 -8h528q10 0 16.5 -7t4.5 -18l-7 -47q-3 -24 -26 -24h-529q-8 0 -8 -8l-80 -639q0 -10 -7.5 -17.5t-18.5 -7.5h-58q-10 0 -16 7t-4 18l170 1384q4 25 26 25h836q11 0 17.5 -7.5t5.5 -17.5z" />
    <glyph glyph-name="G" unicode="G" horiz-adv-x="1202" 
d="M569 -16q-204 0 -314 120.5t-85 317.5l72 590q25 198 164 318t344 120q202 0 312 -119t87 -307l-4 -25q0 -10 -8 -17t-19 -7h-57q-11 0 -16.5 7t-4.5 17l2 23q19 148 -65 240t-238 92q-158 0 -265 -93t-126 -245l-74 -598q-19 -152 66.5 -245t243.5 -93q156 0 261 88.5
t122 237.5l26 206q0 9 -8 9h-305q-11 0 -16.5 7t-4.5 17l7 47q4 25 26 25h395q10 0 16.5 -7t4.5 -18l-33 -262q-24 -207 -162.5 -326.5t-343.5 -119.5z" />
    <glyph glyph-name="H" unicode="H" horiz-adv-x="1312" 
d="M1141 1409q4 25 26 25h58q10 0 16 -7t4 -18l-170 -1384q-4 -25 -26 -25h-58q-10 0 -16 7t-4 18l78 639q0 8 -7 8h-684q-8 0 -8 -8l-80 -639q0 -10 -7.5 -17.5t-18.5 -7.5h-58q-10 0 -16 7t-4 18l170 1384q4 25 26 25h58q10 0 16 -7t4 -18l-78 -633q0 -8 9 -8h684
q2 0 5 2.5t3 5.5z" />
    <glyph glyph-name="I" unicode="I" horiz-adv-x="512" 
d="M186 0q-10 0 -16 7t-4 18l170 1384q4 25 26 25h58q10 0 16 -7t4 -18l-170 -1384q0 -10 -7.5 -17.5t-18.5 -7.5h-58z" />
    <glyph glyph-name="J" unicode="J" horiz-adv-x="1146" 
d="M461 -16q-198 0 -304 114t-83 303l12 99q0 10 8 17t19 7h57q23 0 20 -24l-12 -99q-17 -145 63.5 -233t231.5 -88q152 0 254 88t121 233l123 1008q2 11 10 18t18 7h58q9 0 15 -7.5t5 -17.5l-125 -1008q-23 -189 -158 -303t-333 -114z" />
    <glyph glyph-name="K" unicode="K" horiz-adv-x="1206" 
d="M186 0q-10 0 -16 7t-4 18l170 1384q4 25 26 25h58q10 0 16 -7t4 -18l-88 -719q0 -5 3.5 -6.5t6.5 2.5l760 735q10 13 31 13h64q15 0 18.5 -9.5t-8.5 -21.5l-561 -557q-2 -2 -2 -12l440 -803q6 -12 0 -21.5t-19 -9.5h-69q-21 0 -27 16l-405 740q-2 3 -6 4t-7 -2l-233 -219
q-4 -4 -4 -11l-64 -503q0 -10 -7.5 -17.5t-18.5 -7.5h-58z" />
    <glyph glyph-name="L" unicode="L" horiz-adv-x="1126" 
d="M186 0q-10 0 -16 7t-4 18l170 1384q4 25 26 25h58q10 0 16 -7t4 -18l-159 -1305q0 -8 8 -8h708q11 0 16.5 -7t4.5 -17l-6 -47q-4 -25 -27 -25h-799z" />
    <glyph glyph-name="M" unicode="M" horiz-adv-x="1417" 
d="M188 0q-10 0 -16 7t-4 18l170 1384q4 25 27 25h61q17 0 27 -17l307 -624q0 -3 4 -3t6 3l463 624q14 17 31 17h61q9 0 15.5 -7.5t5.5 -17.5l-170 -1384q-1 -10 -9.5 -17.5t-17.5 -7.5h-57q-10 0 -16.5 7t-6.5 18l148 1198q1 4 -0.5 6t-4.5 1t-6 -5l-411 -561
q-11 -17 -31 -17h-31q-16 0 -26 17l-277 561q-1 4 -3 5t-4 -1t-3 -6l-148 -1198q0 -10 -7.5 -17.5t-18.5 -7.5h-58z" />
    <glyph glyph-name="N" unicode="N" horiz-adv-x="1345" 
d="M186 0q-10 0 -16 7t-4 18l170 1384q4 25 26 25h60q21 0 27 -17l567 -1192q1 -4 3 -5t4 1t3 6l143 1182q1 10 9.5 17.5t19.5 7.5h57q9 0 15.5 -7.5t5.5 -17.5l-170 -1384q-4 -25 -27 -25h-59q-22 0 -27 16l-567 1194q-1 4 -3 5t-4 -1t-3 -6l-146 -1183q0 -10 -7.5 -17.5
t-18.5 -7.5h-58z" />
    <glyph glyph-name="O" unicode="O" horiz-adv-x="1234" 
d="M573 -16q-207 0 -317 128t-84 337l66 536q26 210 167.5 337.5t348.5 127.5q209 0 320 -128t85 -337l-65 -536q-25 -209 -168.5 -337t-352.5 -128zM586 78q161 0 271 100t132 266l66 543q20 164 -66.5 265.5t-247.5 101.5q-158 0 -267.5 -101.5t-129.5 -265.5l-68 -543
q-20 -166 65 -266t245 -100z" />
    <glyph glyph-name="P" unicode="P" horiz-adv-x="1171" 
d="M856 1438q170 0 260 -108t68 -283t-139 -281.5t-289 -106.5h-412q-10 0 -10 -8l-76 -626q-1 -10 -9.5 -17.5t-17.5 -7.5h-59q-9 0 -15 7.5t-5 17.5l170 1388q2 11 10 18t18 7h506zM764 752q125 0 211.5 81t101.5 211q17 133 -49 214t-192 81h-410q-8 0 -8 -8l-70 -571
q-1 -3 1 -5.5t5 -2.5h410z" />
    <glyph glyph-name="Q" unicode="Q" horiz-adv-x="1136" 
d="M707 1450q199 0 305.5 -124t81.5 -327l-70 -571q-23 -184 -141.5 -303t-296.5 -139q-8 0 -8 -9l-25 -198q-4 -25 -27 -25h-57q-10 0 -16 7t-4 18l22 198q2 3 0 6t-6 3q-171 20 -260.5 139t-67.5 303l72 571q25 203 162 327t336 124zM920 428l69 578q20 157 -61.5 252.5
t-233.5 95.5t-256.5 -95.5t-124.5 -252.5l-69 -578q-20 -157 61.5 -252.5t233.5 -95.5t256.5 95.5t124.5 252.5z" />
    <glyph glyph-name="R" unicode="R" horiz-adv-x="1216" 
d="M991 0q-18 0 -24 18l-228 652q-3 6 -6 6h-375q-8 0 -8 -8l-80 -643q0 -10 -7.5 -17.5t-18.5 -7.5h-58q-10 0 -16 7t-4 18l170 1388q1 10 9 17.5t17 7.5h498q167 0 256.5 -106.5t67.5 -278.5q-19 -147 -109 -246.5t-225 -122.5q-9 -3 -6 -10l225 -645q6 -29 -22 -29h-56z
M440 1339q-8 0 -8 -8l-70 -557q0 -8 9 -8h397q123 0 208.5 78.5t102.5 206.5q15 131 -51 209.5t-190 78.5h-398z" />
    <glyph glyph-name="S" unicode="S" horiz-adv-x="1159" 
d="M549 -16q-216 0 -329 101t-93 271l8 64q2 11 9.5 17.5t17.5 6.5h53q11 0 16.5 -7t4.5 -17l-7 -58q-15 -126 76.5 -204t263.5 -78q165 0 260.5 71t110.5 195q13 111 -61.5 184t-278.5 166q-75 34 -111 52t-90 48.5t-78 57t-49.5 64t-32 82t0.5 100.5q22 168 145 259
t322 91q218 0 327.5 -102t87.5 -275l-4 -43q-1 -10 -9 -17t-17 -7h-58q-22 0 -22 24l6 37q15 128 -70.5 207.5t-259.5 79.5q-151 0 -240 -64.5t-104 -185.5q-7 -62 6.5 -105.5t63.5 -82t99 -63.5t155 -71q82 -36 138 -66t109 -69.5t82.5 -81t43.5 -96t6 -119.5
q-21 -165 -152 -265.5t-346 -100.5z" />
    <glyph glyph-name="T" unicode="T" horiz-adv-x="1122" 
d="M1141 1434q22 0 22 -25l-6 -47q-1 -10 -9.5 -17.5t-17.5 -7.5h-393q-10 0 -10 -8l-160 -1304q-4 -25 -26 -25h-58q-10 0 -16 7t-4 18l160 1304q0 8 -9 8h-372q-10 0 -16.5 7t-4.5 18l6 47q4 25 27 25h887z" />
    <glyph glyph-name="U" unicode="U" horiz-adv-x="1296" 
d="M606 -16q-207 0 -318.5 124t-86.5 326l118 975q1 10 9.5 17.5t17.5 7.5h57q11 0 17.5 -7.5t5.5 -17.5l-121 -979q-20 -157 66.5 -253.5t246.5 -96.5t269.5 96.5t128.5 253.5l121 979q4 25 26 25h58q10 0 16 -7t4 -18l-119 -975q-25 -203 -166 -326.5t-350 -123.5z" />
    <glyph glyph-name="V" unicode="V" horiz-adv-x="1153" 
d="M500 0q-20 0 -23 20l-268 1385q-3 13 3.5 21t18.5 8h64q17 0 24 -21l232 -1245q1 -4 6 -4t6 4l543 1245q7 21 27 21h61q11 0 16 -8t0 -21l-612 -1385q-7 -20 -29 -20h-69z" />
    <glyph glyph-name="W" unicode="W" horiz-adv-x="1738" 
d="M430 0q-24 0 -27 20l-215 1387q-3 27 23 27h61q24 0 27 -21l182 -1190q0 -3 1.5 -4t3.5 0t3 4l449 1190q9 21 31 21h63q22 0 25 -21l168 -1190q1 -5 5 -5t5 5l477 1190q7 21 29 21h57q28 0 19 -27l-557 -1387q-7 -20 -31 -20h-62q-21 0 -24 20l-162 1213q0 3 -1 4t-3 0
t-4 -4l-457 -1213q-6 -20 -29 -20h-57z" />
    <glyph glyph-name="X" unicode="X" horiz-adv-x="1148" 
d="M61 0q-14 0 -17.5 8t5.5 21l508 682q3 6 0 12l-338 682q-6 13 -0.5 21t19.5 8h65q17 0 27 -17l299 -608q0 -3 4.5 -3t5.5 3l448 608q14 17 31 17h64q13 0 16.5 -8t-4.5 -21l-506 -684q-2 -4 -2 -12l338 -680q6 -13 1 -21t-19 -8h-64q-21 0 -27 16l-299 607q-4 8 -12 0
l-446 -607q-13 -16 -31 -16h-66z" />
    <glyph glyph-name="Y" unicode="Y" horiz-adv-x="1099" 
d="M483 0q-10 0 -16 7t-4 18l76 626v11l-322 743q-6 13 0.5 21t20.5 8h57q19 0 29 -17l276 -641q2 -3 6 -3t6 3l435 641q10 17 30 17h58q14 0 18.5 -8t-4.5 -21l-504 -743q-2 -2 -2 -11l-78 -626q-4 -25 -26 -25h-56z" />
    <glyph glyph-name="Z" unicode="Z" horiz-adv-x="1087" 
d="M80 0q-10 0 -16.5 7t-4.5 18l7 59q4 21 12 31l897 1212q3 3 1.5 6.5t-5.5 3.5h-727q-10 0 -16.5 7t-4.5 18l6 47q0 10 8 17.5t19 7.5h829q10 0 16.5 -7t4.5 -18l-6 -59q-4 -20 -13 -31l-894 -1213q-4 -3 -2.5 -6.5t6.5 -3.5h725q23 0 20 -24l-6 -47q0 -10 -8 -17.5
t-19 -7.5h-829z" />
    <glyph glyph-name="bracketleft" unicode="[" horiz-adv-x="735" 
d="M18 -233q-23 0 -20 24l215 1757q1 10 9.5 17.5t19.5 7.5h348q10 0 16 -7t4 -18l-4 -49q-1 -10 -9 -17t-19 -7h-261q-8 0 -8 -9l-196 -1595q0 -8 8 -8h262q10 0 16 -7t4 -18l-6 -47q-3 -24 -26 -24h-353z" />
    <glyph glyph-name="backslash" unicode="\" horiz-adv-x="665" 
d="M557 29q2 -12 -4 -20.5t-18 -8.5h-58q-17 0 -24 20l-248 1385q-2 12 4 20.5t18 8.5h58q17 0 24 -21z" />
    <glyph glyph-name="bracketright" unicode="]" horiz-adv-x="735" 
d="M606 -209q-3 -24 -26 -24h-353q-23 0 -20 24l6 47q4 25 27 25h262q8 0 8 8l197 1595q0 9 -7 9h-260q-11 0 -17 7t-5 17l6 49q1 10 9.5 17.5t17.5 7.5h350q10 0 16 -7t4 -18z" />
    <glyph glyph-name="asciicircum" unicode="^" horiz-adv-x="882" 
d="M152 635q-28 0 -15 29l383 751q6 19 29 19h55q24 0 27 -19l198 -751q7 -29 -20 -29h-45q-24 0 -27 18l-168 660q-1 6 -6 6t-6 -6l-332 -660q-9 -18 -30 -18h-43z" />
    <glyph glyph-name="underscore" unicode="_" horiz-adv-x="942" 
d="M47 0q-10 0 -16 7t-4 18l6 41q0 10 7.5 17t18.5 7h768q11 0 16.5 -7t4.5 -17l-4 -41q-1 -10 -9.5 -17.5t-17.5 -7.5h-770z" />
    <glyph glyph-name="grave" unicode="`" horiz-adv-x="374" 
d="M408 1212q4 -12 -2 -20t-19 -8h-45q-19 0 -27 16l-100 219q-4 13 1.5 21t19.5 8h53q18 0 28 -16z" />
    <glyph glyph-name="a" unicode="a" 
d="M872 1008q2 11 9.5 17.5t17.5 6.5h57q23 0 23 -24l-121 -983q-1 -10 -9.5 -17.5t-19.5 -7.5h-57q-9 0 -15 7.5t-5 17.5l12 92q0 5 -3.5 6.5t-6.5 -2.5q-52 -65 -125 -101t-158 -36q-136 0 -219.5 73.5t-101.5 198.5q-12 81 8 258q24 183 53 258q47 127 150.5 202
t240.5 75q85 0 148.5 -36t99.5 -102q3 -4 6.5 -2.5t5.5 6.5zM758 272q19 38 30.5 87t24.5 155q13 110 13.5 163.5t-9.5 86.5q-9 83 -66 135.5t-149 52.5q-94 0 -168.5 -52t-107.5 -134q-22 -44 -36 -93.5t-26 -156.5q-20 -164 -4 -244q11 -87 74 -139.5t160 -52.5
q94 0 163 53t101 139z" />
    <glyph glyph-name="b" unicode="b" horiz-adv-x="1069" 
d="M969 772q11 -77 -13 -258q-19 -169 -53 -258q-48 -125 -150.5 -198.5t-238.5 -73.5q-176 0 -250 141q-3 5 -6.5 3.5t-3.5 -7.5l-12 -96q-4 -25 -27 -25h-57q-10 0 -16.5 7t-6.5 18l170 1384q1 10 9.5 17.5t19.5 7.5h57q9 0 15.5 -7.5t5.5 -17.5l-62 -496q0 -5 3 -6.5
t7 2.5q108 140 285 140q137 0 223 -75t101 -202zM797 272q19 43 30.5 91t24.5 153q12 122 11 165.5t-13 84.5q-12 82 -73 134t-156 52q-92 0 -161 -52.5t-100 -135.5q-20 -41 -32 -91t-25 -159q-21 -173 -6 -242q11 -85 67.5 -138.5t149.5 -53.5q97 0 173.5 52.5
t109.5 139.5z" />
    <glyph glyph-name="c" unicode="c" horiz-adv-x="1026" 
d="M496 -16q-142 0 -231 75.5t-107 202.5q-15 100 6 256q18 154 55 254q48 125 157 201t249 76q141 0 234.5 -74.5t107.5 -183.5q6 -27 6 -54q0 -22 -25 -26l-57 -9q-22 -3 -25 23q0 17 -2 25q-8 86 -76 144t-174 58q-110 0 -189.5 -59.5t-111.5 -157.5q-27 -73 -45 -219
q-18 -152 -8 -217q6 -100 71.5 -159.5t174.5 -59.5q108 0 192 58.5t109 146.5l4 8q6 22 31 18l51 -6q24 -3 18 -29q-4 -16 -12 -32q-40 -115 -151 -187.5t-252 -72.5z" />
    <glyph glyph-name="d" unicode="d" horiz-adv-x="1069" 
d="M924 1409q4 25 26 25h58q22 0 22 -25l-170 -1384q-1 -10 -9.5 -17.5t-19.5 -7.5h-57q-9 0 -15 7.5t-5 17.5l12 96q0 14 -10 4q-107 -141 -285 -141q-136 0 -219.5 73.5t-101.5 198.5q-12 81 8 258q24 183 53 258q47 127 150.5 202t240.5 75q175 0 250 -140q3 -4 6.5 -2.5
t3.5 6.5zM758 272q19 38 30.5 87t24.5 155q13 110 13.5 163.5t-9.5 86.5q-9 83 -66 135.5t-149 52.5q-94 0 -168.5 -52t-107.5 -134q-22 -44 -36 -93.5t-26 -156.5q-20 -164 -4 -244q11 -87 74 -139.5t160 -52.5q94 0 163 53t101 139z" />
    <glyph glyph-name="e" unicode="e" horiz-adv-x="1054" 
d="M510 78q97 1 173 46.5t118 121.5q15 21 33 12l34 -14q23 -12 11 -33q-56 -104 -157 -165.5t-230 -61.5q-138 0 -224 69.5t-108 190.5q-17 89 6 274q7 69 11.5 102.5t13 73.5t20.5 70q48 130 155.5 207.5t249.5 77.5q159 0 246.5 -86t93.5 -236q7 -62 -12 -219
q-3 -27 -26 -27h-646q-7 0 -10 -8q-15 -126 -10 -176q8 -99 76.5 -159t181.5 -60zM309 739q-16 -42 -33 -161q-3 -9 7 -9h555q8 0 8 9q12 97 8 155q-8 98 -74.5 158.5t-173.5 60.5q-108 0 -186.5 -58.5t-110.5 -154.5z" />
    <glyph glyph-name="f" unicode="f" horiz-adv-x="694" 
d="M664 1337q-119 0 -168.5 -57t-65.5 -186l-6 -54q0 -8 6 -8h229q11 0 16.5 -7t4.5 -17l-6 -52q-2 -11 -9.5 -17.5t-17.5 -6.5h-229q-8 0 -8 -8l-111 -899q-4 -25 -27 -25h-57q-10 0 -16 7t-4 18l108 899q1 3 -1 5.5t-5 2.5h-127q-23 0 -20 24l6 52q3 24 26 24h127q8 0 8 8
l9 58q11 90 32 150t60.5 103.5t100 63t149.5 19.5h47q10 0 16 -7t4 -18l-6 -47q-4 -25 -27 -25h-38z" />
    <glyph glyph-name="g" unicode="g" horiz-adv-x="1052" 
d="M877 1008q3 24 26 24h58q23 0 20 -24l-121 -985q-28 -230 -174.5 -335t-390.5 -96q-11 2 -16.5 9.5t-4.5 17.5l9 51q4 26 28 23q209 -6 316 75t129 257l12 102q1 6 -2 7.5t-6 -3.5q-111 -141 -291 -141q-129 0 -217 72.5t-105 199.5q-10 80 9 252q24 183 57 264
q47 121 149.5 196t233.5 75q181 0 258 -140q3 -4 6.5 -2.5t3.5 6.5zM780 301q16 53 37 215q19 168 17 219q-5 93 -66 155t-164 62q-104 0 -182.5 -61.5t-114.5 -155.5q-28 -72 -45 -217q-17 -150 -8 -217q9 -94 74.5 -155.5t169.5 -61.5q105 0 179.5 62t102.5 155z" />
    <glyph glyph-name="h" unicode="h" 
d="M657 1047q152 0 234 -96.5t63 -254.5l-84 -671q0 -10 -7.5 -17.5t-18.5 -7.5h-58q-10 0 -16 7t-4 18l80 651q15 122 -47 198t-176 76q-120 0 -203 -75t-98 -195l-80 -655q-4 -25 -27 -25h-57q-10 0 -16.5 7t-6.5 18l170 1384q1 10 9.5 17.5t19.5 7.5h57q9 0 15.5 -7.5
t5.5 -17.5l-62 -498q0 -12 8 -4q106 140 299 140z" />
    <glyph glyph-name="i" unicode="i" horiz-adv-x="481" 
d="M352 1239q-38 0 -61 26t-19 64t34 63t69 25q40 0 62.5 -25t17.5 -63t-34 -64t-69 -26zM172 0q-9 0 -15 7.5t-5 17.5l120 983q2 11 9.5 17.5t17.5 6.5h57q23 0 23 -24l-121 -983q-1 -10 -9.5 -17.5t-17.5 -7.5h-59z" />
    <glyph glyph-name="j" unicode="j" horiz-adv-x="452" 
d="M340 1237q-40 0 -61.5 25t-16.5 65q4 40 33 65t67 25q41 0 64.5 -25t17.5 -65q-5 -40 -33.5 -65t-70.5 -25zM-127 -428q-10 0 -16 7t-4 18l6 45q3 24 26 24q104 4 165 61t73 160l137 1121q1 10 9.5 17t17.5 7h59q9 0 15.5 -7t5.5 -17l-138 -1121q-20 -156 -107.5 -234
t-248.5 -81z" />
    <glyph glyph-name="k" unicode="k" horiz-adv-x="976" 
d="M158 0q-10 0 -16.5 7t-6.5 18l170 1384q1 10 9.5 17.5t19.5 7.5h57q9 0 15.5 -7.5t5.5 -17.5l-107 -870q-1 -4 2 -5.5t6 1.5l516 485q15 12 33 12h70q14 0 16 -9.5t-8 -21.5l-283 -272q-5 -5 -2 -10l219 -690q6 -29 -22 -29h-61q-20 0 -25 18l-193 627q-3 7 -10 2
l-272 -258q-6 -6 -6 -10l-43 -354q-4 -25 -27 -25h-57z" />
    <glyph glyph-name="l" unicode="l" horiz-adv-x="450" 
d="M158 0q-10 0 -16.5 7t-6.5 18l170 1384q1 10 9.5 17.5t19.5 7.5h57q9 0 15.5 -7.5t5.5 -17.5l-170 -1384q-4 -25 -27 -25h-57z" />
    <glyph glyph-name="m" unicode="m" horiz-adv-x="1642" 
d="M1255 1047q146 0 222 -90.5t57 -247.5l-84 -684q-1 -10 -9.5 -17.5t-17.5 -7.5h-57q-9 0 -15 7.5t-5 17.5l81 663q15 120 -45 191t-170 71q-115 0 -194 -69.5t-92 -188.5l-82 -667q-1 -10 -9.5 -17.5t-17.5 -7.5h-55q-11 0 -17.5 7.5t-5.5 17.5l82 663q15 120 -43.5 191
t-167.5 71q-118 0 -195.5 -69.5t-90.5 -188.5l-82 -667q-4 -25 -27 -25h-57q-10 0 -16.5 7t-6.5 18l121 983q1 10 9.5 17t19.5 7h57q9 0 15 -7t5 -17l-10 -88q-2 -5 1.5 -7t6.5 2q105 132 289 132q103 0 173 -46t96 -131q2 -8 8 -2q53 89 138.5 134t190.5 45z" />
    <glyph glyph-name="n" unicode="n" 
d="M657 1047q152 0 234 -96.5t63 -254.5l-84 -671q0 -10 -7.5 -17.5t-18.5 -7.5h-58q-10 0 -16 7t-4 18l80 651q15 122 -47 198t-176 76q-120 0 -203 -75t-98 -195l-80 -655q-4 -25 -27 -25h-57q-10 0 -16.5 7t-6.5 18l121 983q1 10 9.5 17t19.5 7h57q9 0 15 -7t5 -17
l-12 -97q0 -12 8 -4q106 140 299 140z" />
    <glyph glyph-name="o" unicode="o" horiz-adv-x="1071" 
d="M496 -16q-143 0 -232 75t-108 203q-15 85 8 256q17 157 51 254q52 127 161 202t249 75q141 0 232 -75.5t108 -201.5q12 -79 -9 -254q-23 -175 -53 -256q-50 -127 -159.5 -202.5t-247.5 -75.5zM506 80q106 0 187.5 60t115.5 159q22 65 39 217q19 159 14 217
q-9 99 -76.5 159t-173.5 60q-107 0 -188 -59.5t-115 -159.5q-23 -64 -39 -217q-21 -168 -14 -217q9 -101 75.5 -160t174.5 -59z" />
    <glyph glyph-name="p" unicode="p" horiz-adv-x="1083" 
d="M981 776q12 -85 -10 -258q-20 -178 -51 -258q-46 -126 -150.5 -201t-241.5 -75q-87 0 -151.5 36t-100.5 103q-1 3 -3 3t-4 -2t-3 -5l-59 -496q-1 -10 -9.5 -17t-19.5 -7h-57q-9 0 -15.5 7t-5.5 17l170 1385q1 10 9.5 17t17.5 7h57q23 0 23 -24l-12 -97q-1 -6 2 -7.5
t6 3.5q110 142 286 142q136 0 220 -74t102 -199zM803 266q22 40 35.5 90t27.5 160q20 164 4 244q-11 87 -74.5 139.5t-160.5 52.5q-93 0 -162.5 -53t-101.5 -139q-35 -82 -54 -242q-13 -110 -13.5 -163.5t9.5 -86.5q9 -83 66 -135.5t149 -52.5q94 0 168 52t107 134z" />
    <glyph glyph-name="q" unicode="q" horiz-adv-x="1083" 
d="M874 1008q2 11 9.5 17.5t17.5 6.5h57q11 0 16.5 -7t4.5 -17l-170 -1385q0 -10 -8 -17t-19 -7h-57q-23 0 -20 24l61 496q0 5 -3.5 6.5t-6.5 -2.5q-107 -139 -285 -139q-138 0 -223.5 75t-100.5 201q-11 77 13 258q19 169 53 258q48 125 150.5 199t238.5 74q176 0 250 -142
q3 -5 6.5 -3.5t3.5 7.5zM756 268q20 41 32 91t25 159q21 173 6 242q-11 85 -67.5 138.5t-149.5 53.5q-97 0 -173.5 -52.5t-109.5 -139.5q-19 -43 -30.5 -91t-24.5 -153q-20 -170 0 -250q14 -82 75 -134t155 -52q93 0 162 52.5t100 135.5z" />
    <glyph glyph-name="r" unicode="r" horiz-adv-x="712" 
d="M639 1040q61 0 111 -22q14 -9 8 -31l-25 -59q-9 -24 -31 -15q-44 15 -94 13q-111 -1 -194.5 -86.5t-98.5 -208.5l-73 -606q-4 -25 -27 -25h-57q-10 0 -16.5 7t-6.5 18l121 983q1 10 9.5 17t19.5 7h57q9 0 15 -7t5 -17l-16 -136q-1 -4 0 -6t3.5 -1t4.5 5q110 170 285 170z
" />
    <glyph glyph-name="s" unicode="s" horiz-adv-x="950" 
d="M444 -10q-161 0 -253 77.5t-78 190.5l4 23q0 10 7.5 17t18.5 7h56q23 0 20 -20l-2 -23q-9 -75 57 -129.5t179 -54.5q112 0 188.5 54.5t87.5 137.5q4 34 -7.5 62t-29.5 46t-53 35.5t-63.5 27.5t-74.5 25q-11 3 -16 5q-45 15 -70 23.5t-64.5 25.5t-61.5 31t-48.5 37
t-38.5 47.5t-18.5 58t-1.5 72.5q15 125 120.5 199.5t262.5 74.5q159 0 247.5 -76.5t74.5 -195.5v-2q-4 -25 -27 -25h-53q-11 0 -17.5 4.5t-5.5 10.5l2 12q9 77 -54.5 129.5t-180.5 52.5q-110 0 -184 -48.5t-84 -129.5q-3 -33 8 -60.5t29 -46t54 -36t65 -28t79 -26.5
q146 -46 202 -79q132 -77 114 -220q-15 -128 -122.5 -207t-267.5 -79z" />
    <glyph glyph-name="t" unicode="t" horiz-adv-x="712" 
d="M670 965q-1 -10 -9.5 -17.5t-19.5 -7.5h-227q-7 0 -11 -8l-77 -645q-13 -104 28.5 -146.5t141.5 -42.5h41q23 0 20 -24l-6 -47q-4 -25 -27 -25q-9 0 -27.5 -1t-27.5 -1q-67 0 -114 11.5t-82.5 39t-49 79.5t-4.5 128l82 674q0 8 -6 8h-117q-9 0 -15 7.5t-5 17.5l6 43
q3 24 26 24h115q6 0 10 8l27 230q1 10 9.5 17t17.5 7h57q9 0 15 -7t5 -17l-28 -230q0 -8 6 -8h229q11 0 16.5 -7t4.5 -17z" />
    <glyph glyph-name="u" unicode="u" horiz-adv-x="1062" 
d="M870 1008q2 11 9.5 17.5t17.5 6.5h55q23 0 23 -24l-121 -983q-1 -10 -9.5 -17.5t-17.5 -7.5h-57q-9 0 -15 7.5t-5 17.5l12 96q0 6 -2.5 7t-5.5 -5q-106 -137 -297 -137q-147 0 -233 90.5t-66 247.5l84 684q0 10 7.5 17t18.5 7h56q23 0 20 -24l-80 -656
q-15 -123 46 -196.5t179 -73.5q121 0 204 74t98 196z" />
    <glyph glyph-name="v" unicode="v" horiz-adv-x="921" 
d="M385 0q-20 0 -23 20l-204 984q-6 28 20 28h68q19 0 22 -20l168 -846q0 -3 2 -4t4.5 0t3.5 4l375 846q10 20 29 20l68 -2q27 0 14 -29l-447 -981q-10 -20 -28 -20h-72z" />
    <glyph glyph-name="w" unicode="w" horiz-adv-x="1400" 
d="M336 0q-22 0 -25 20l-155 984q-2 12 4 20t18 8h58q23 0 26 -20l121 -852q1 -4 5 -4t5 4l334 852q7 20 29 20h57q22 0 25 -20l125 -850q1 -4 6 -4t6 4l334 850q9 20 30 20l58 -2q11 0 15.5 -7t0.5 -19l-401 -984q-10 -20 -29 -20h-61q-22 0 -25 20l-131 816q-2 4 -5.5 4
t-6.5 -4l-326 -816q-10 -20 -31 -20h-61z" />
    <glyph glyph-name="x" unicode="x" horiz-adv-x="917" 
d="M43 0q-14 0 -17.5 9.5t5.5 21.5l389 479q4 8 2 12l-270 479q-7 12 -1.5 21.5t19.5 9.5h61q21 0 27 -16l227 -410q1 -3 6 -3t7 3l325 410q13 16 31 16h68q15 0 18.5 -9.5t-6.5 -21.5l-389 -479q-2 -4 -2 -12l272 -479q6 -12 0.5 -21.5t-20.5 -9.5h-64q-16 0 -26 16
l-226 408q-1 3 -6 3t-6 -3l-328 -408q-13 -16 -30 -16h-66z" />
    <glyph glyph-name="y" unicode="y" horiz-adv-x="892" 
d="M27 -410q-6 0 -9 7.5t-2 17.5l7 45q4 25 16 25h14q47 1 79 9.5t59 26t53 56.5t50 86.5t60 130.5q5 9 2 12l-215 998q-3 13 4.5 20.5t18.5 7.5h59q22 0 25 -20l176 -854q2 -4 6 -4t6 4l377 854q10 20 29 20h61q13 0 17.5 -7t-0.5 -21l-510 -1108q-61 -133 -109.5 -196
t-105.5 -86.5t-154 -23.5h-14z" />
    <glyph glyph-name="z" unicode="z" horiz-adv-x="878" 
d="M55 0q-10 0 -16 7t-4 18l8 59q0 15 12 31l690 807q3 3 1.5 6.5t-5.5 3.5h-563q-23 0 -20 24l6 52q3 24 26 24h676q11 0 16.5 -7t4.5 -17l-8 -60q0 -13 -13 -30l-696 -807q-3 -3 -1.5 -7t5.5 -4h576q23 0 20 -24l-6 -51q-4 -25 -27 -25h-682z" />
    <glyph glyph-name="braceleft" unicode="{" horiz-adv-x="563" 
d="M301 -233q-100 0 -137.5 53.5t-22.5 173.5l54 448q10 86 -7 130t-65 55q-22 6 -19 26l7 45q0 20 24 27q50 11 78.5 54.5t38.5 127.5l53 436q15 120 66.5 175t150.5 55h109q9 0 15 -7.5t5 -17.5l-6 -49q-2 -11 -9.5 -17.5t-17.5 -6.5h-77q-59 0 -91 -37.5t-42 -120.5
l-50 -412q-12 -92 -41 -145t-79 -78q-11 -4 -2 -10q44 -26 59.5 -80t5.5 -146l-51 -426q-10 -82 12 -119.5t80 -37.5h78q10 0 16 -7t4 -18l-4 -47q-1 -10 -9 -17t-19 -7h-107z" />
    <glyph glyph-name="bar" unicode="|" horiz-adv-x="309" 
d="M68 -164q-10 0 -16.5 7t-4.5 18l205 1671q2 11 9.5 17.5t17.5 6.5h57q23 0 20 -24l-204 -1671q-4 -25 -27 -25h-57z" />
    <glyph glyph-name="braceright" unicode="}" horiz-adv-x="563" 
d="M125 -233h-109q-9 0 -15 7t-5 17l6 47q4 25 27 25h77q59 0 91.5 37t42.5 120l51 426q12 92 41 146t80 80q11 7 2 10q-45 25 -61.5 78t-4.5 145l49 412q10 83 -12 120.5t-80 37.5h-78q-23 0 -20 24l4 49q1 10 9.5 17.5t19.5 7.5h106q99 0 137 -55t23 -175l-53 -436
q-10 -84 7.5 -127.5t65.5 -54.5q22 -7 19 -27l-6 -45q-3 -20 -25 -26q-99 -21 -119 -185l-55 -448q-13 -120 -64 -173.5t-151 -53.5z" />
    <glyph glyph-name="asciitilde" unicode="~" horiz-adv-x="976" 
d="M700 489q-43 0 -84 13.5t-58.5 23.5t-59.5 37q-80 49 -148 49q-99 0 -162 -82q-19 -19 -34 -6l-25 19q-18 12 -6 32q39 63 101 99.5t134 36.5q50 0 87.5 -13.5t80.5 -40.5q70 -46 108 -57q36 -12 77 -12q42 0 73.5 20t67.5 60q19 19 35 6l26 -23q19 -12 7 -33
q-90 -129 -220 -129z" />
    <glyph glyph-name="uni00A0" unicode="&#xa0;" horiz-adv-x="397" 
 />
    <glyph glyph-name="exclamdown" unicode="&#xa1;" horiz-adv-x="628" 
d="M446 1450q44 0 72.5 -31.5t24.5 -77.5q-6 -44 -43 -75t-80 -31q-42 0 -71 31.5t-23 74.5q6 46 41 77.5t79 31.5zM348 973q2 11 9.5 17.5t17.5 6.5h43q23 0 20 -24l-104 -924q-2 -11 -9.5 -17.5t-17.5 -6.5h-57q-11 0 -16.5 7t-4.5 17z" />
    <glyph glyph-name="cent" unicode="&#xa2;" horiz-adv-x="1026" 
d="M829 469l5 8q6 22 30 19l51 -7q25 -4 19 -28q-3 -12 -10 -33q-38 -108 -142 -179.5t-237 -80.5q-8 0 -8 -8l-15 -135q-1 -10 -9 -17.5t-17 -7.5h-47q-10 0 -16.5 7t-4.5 18l18 141q2 7 -6 10q-110 19 -178 90.5t-82 179.5q-15 100 6 256q18 150 56 254
q40 107 126.5 178.5t200.5 90.5q9 3 11 10l14 139q4 25 27 25h45q22 0 22 -25l-18 -133q-4 -8 6 -8q131 -9 216 -81.5t97 -176.5q6 -27 6 -53q0 -24 -24 -27l-58 -8q-21 -3 -24 22q0 17 -2 25q-8 86 -76 144.5t-174 58.5q-110 0 -189.5 -59.5t-111.5 -157.5
q-27 -72 -45 -220q-18 -152 -8 -217q6 -100 71 -159.5t174 -59.5q108 0 192 58.5t109 146.5z" />
    <glyph glyph-name="sterling" unicode="&#xa3;" horiz-adv-x="1202" 
d="M373 104q-7 -10 2 -10h704q9 0 15.5 -7t5.5 -17l-6 -45q-4 -25 -27 -25h-821q-10 0 -16.5 7t-4.5 18l6 49q3 18 21 30q53 31 90 100.5t49 160.5l33 270q0 8 -8 8h-150q-10 0 -16 7t-4 18l4 41q3 24 26 24h152q8 0 8 8l39 318q23 179 133.5 281t284.5 110q132 6 214 -59.5
t110 -194.5q3 -26 -23 -29l-55 -12q-20 -6 -27 19q-39 188 -227 182q-129 -6 -207.5 -81.5t-95.5 -213.5l-39 -320q-1 -3 1 -5.5t5 -2.5h381q23 0 20 -24l-4 -41q-4 -25 -26 -25h-381q-11 0 -11 -8l-32 -266q-21 -173 -123 -265z" />
    <glyph glyph-name="currency" unicode="&#xa4;" horiz-adv-x="1009" 
d="M915 616q-14 -127 -106 -233q-3 -7 2 -12l109 -129q15 -18 -5 -35l-36 -31q-21 -17 -35 0l-109 125q0 2 -3.5 2.5t-6.5 -0.5q-113 -80 -242 -80q-120 0 -213 74q-7 3 -12 -2l-129 -119q-19 -16 -35 0l-28 31q-18 18 2 35l131 118q8 4 4 13q-73 111 -56 243
q14 128 109 238q4 8 0 12l-109 127q-13 17 5 35l38 31q8 7 17.5 7t15.5 -7l107 -127q0 -2 3.5 -2.5t6.5 0.5q113 80 242 80q131 0 227 -86q7 -3 12 2l144 133q7 7 16.5 7t15.5 -7l31 -31q16 -16 -2 -35l-149 -135q-7 -7 -5 -12q58 -99 43 -230zM242 616q-13 -123 61 -210
t193 -87q120 0 216 87t111 210t-59.5 211t-194.5 88t-216 -88t-111 -211z" />
    <glyph glyph-name="yen" unicode="&#xa5;" horiz-adv-x="1368" 
d="M1270 1434q14 0 18.5 -8t-4.5 -21l-471 -696q-3 -3 -1.5 -7t5.5 -4h242q23 0 20 -24l-2 -23q-3 -24 -26 -24h-269q-8 0 -8 -9l-22 -182q-1 -3 1 -5.5t5 -2.5h268q10 0 16.5 -7t4.5 -18l-3 -22q-1 -10 -9 -17.5t-17 -7.5h-268q-7 0 -11 -8l-39 -323q-4 -25 -26 -25h-56
q-10 0 -16 7t-4 18l39 323q0 8 -6 8h-277q-10 0 -16 7t-4 18l2 22q4 25 26 25h277q8 0 8 8l23 182q0 9 -6 9h-277q-23 0 -20 24l2 23q3 24 26 24h250q4 0 7 4t1 7l-301 696q-6 13 0.5 21t20.5 8h57q19 0 29 -17l276 -641q1 -3 5.5 -3t7.5 3l434 641q10 17 30 17h58z" />
    <glyph glyph-name="brokenbar" unicode="&#xa6;" horiz-adv-x="309" 
d="M186 813q-9 0 -15 7.5t-5 17.5l86 694q2 11 9.5 17.5t17.5 6.5h57q23 0 20 -24l-84 -694q-1 -10 -9 -17.5t-17 -7.5h-60zM68 -164q-10 0 -16.5 7t-4.5 18l84 694q1 10 9.5 17.5t17.5 7.5h59q9 0 15.5 -7.5t5.5 -17.5l-86 -694q-4 -25 -27 -25h-57z" />
    <glyph glyph-name="section" unicode="&#xa7;" horiz-adv-x="888" 
d="M354 -424q-137 0 -207 89.5t-53 242.5l4 33q2 11 9.5 17.5t17.5 6.5h57q24 0 21 -22l-2 -23q-12 -115 34 -182.5t136 -67.5q89 0 155 68t78 166q4 35 -1.5 65.5t-15 52.5t-31 42t-37.5 32t-46.5 25.5t-46 19.5t-47.5 17q-84 30 -135.5 65t-79.5 99q-31 70 -19 178
q11 110 76 198q72 94 182 121q6 1 6 4t-6 4q-82 35 -129.5 117.5t-35.5 185.5q16 130 115 224t237 94q133 0 206 -89.5t58 -228.5l-2 -24q-1 -10 -9.5 -17.5t-19.5 -7.5h-57q-10 0 -16 6t-5 15l3 20q12 101 -36 166.5t-134 65.5q-91 0 -158 -70.5t-78 -165.5
q-11 -96 46.5 -155.5t172.5 -100.5q144 -45 197 -131q55 -84 39 -211q-12 -113 -74 -203q-70 -102 -172 -120q-13 -3 -2 -7q87 -39 131 -113.5t31 -182.5q-17 -137 -117.5 -227.5t-239.5 -90.5zM436 260q132 0 203 100q41 60 51 148q13 108 -26 164q-59 86 -162 86
q-60 0 -114 -33t-87 -86q-42 -56 -51 -139q-10 -88 14 -140q56 -100 172 -100z" />
    <glyph glyph-name="dieresis" unicode="&#xa8;" horiz-adv-x="612" 
d="M260 1243q-36 0 -57 24t-17 60q5 34 32.5 58t62.5 24t54.5 -23.5t16.5 -58.5q-4 -37 -30.5 -60.5t-61.5 -23.5zM584 1243q-37 0 -58.5 23.5t-17.5 60.5q5 34 32.5 58t63.5 24q34 0 54.5 -24t15.5 -58q-4 -36 -30 -60t-60 -24z" />
    <glyph glyph-name="copyright" unicode="&#xa9;" horiz-adv-x="1753" 
d="M831 -16q-153 0 -279.5 56t-208.5 153t-119.5 232.5t-18.5 289.5q25 208 138 376.5t289 263.5t380 95q155 0 282.5 -56t210 -153t120 -233.5t17.5 -292.5q-19 -154 -89.5 -289.5t-177 -232.5t-248 -153t-296.5 -56zM842 57q138 0 264.5 50.5t222 137.5t159.5 209t81 261
q22 187 -42 338t-201 237t-322 86q-138 0 -264 -50.5t-221 -138t-159 -210t-81 -262.5q-22 -186 41.5 -336t200.5 -236t321 -86zM881 348q-97 0 -148 56.5t-39 148.5l39 328q12 92 76.5 147t161.5 55q94 0 145 -54t41 -144q-3 -23 -27 -23h-20q-11 0 -17.5 4.5t-5.5 10.5v12
q7 58 -27.5 93.5t-96.5 35.5q-65 0 -107.5 -35.5t-48.5 -93.5l-43 -346q-8 -59 26.5 -94t98.5 -35q62 0 106.5 35.5t51.5 93.5q4 26 26 26h23q22 0 22 -8l-2 -12q-10 -90 -75.5 -145.5t-159.5 -55.5z" />
    <glyph glyph-name="ordfeminine" unicode="&#xaa;" horiz-adv-x="641" 
d="M424 1153h151q9 0 9 8l6 56q9 76 -27.5 121.5t-120.5 45.5q-63 0 -108 -25.5t-62 -70.5q-10 -23 -28 -20l-29 4q-24 4 -16 26q24 68 92.5 110t161.5 42q115 0 170 -61.5t43 -165.5l-56 -441q-3 -24 -26 -24h-27q-9 0 -15 7t-5 17l6 43q0 5 -3.5 6.5t-7.5 -2.5
q-72 -81 -210 -81q-95 0 -150.5 46.5t-44.5 141.5q12 100 91.5 158.5t205.5 58.5zM338 809q83 0 148 43t75 119l12 110q0 9 -6 9h-145q-92 0 -153 -38.5t-70 -109.5q-7 -66 31.5 -99.5t107.5 -33.5zM84 580q0 10 8 17t19 7h471q9 0 15 -7t5 -17l-4 -37q-1 -10 -9.5 -17.5
t-19.5 -7.5h-469q-11 0 -17 7.5t-5 17.5z" />
    <glyph glyph-name="guillemotleft" unicode="&#xab;" horiz-adv-x="1089" 
d="M549 250q7 -12 2 -21.5t-19 -9.5h-55q-18 0 -26 14l-220 326q-9 15 5 33l299 326q11 14 30 14h53q15 0 18.5 -9.5t-7.5 -21.5l-297 -319q-4 -8 -2 -13zM856 250q8 -12 3.5 -21.5t-19.5 -9.5h-54q-20 0 -28 14l-219 326q-10 16 4 33l299 326q11 14 30 14h56q13 0 16 -9.5
t-6 -21.5l-299 -319q-3 -6 0 -13z" />
    <glyph glyph-name="logicalnot" unicode="&#xac;" horiz-adv-x="1001" 
d="M125 670q1 10 9.5 17t19.5 7h786q11 0 16.5 -7t4.5 -17l-37 -295q-4 -25 -27 -25h-47q-10 0 -16.5 7t-4.5 18l27 217q0 8 -8 8h-707q-10 0 -16 7t-4 18z" />
    <glyph glyph-name="uni00AD" unicode="&#xad;" horiz-adv-x="776" 
d="M141 596q-10 0 -16 7t-4 18l4 47q1 10 9.5 17t17.5 7h563q23 0 20 -24l-6 -47q-4 -25 -27 -25h-561z" />
    <glyph glyph-name="registered" unicode="&#xae;" horiz-adv-x="899" 
d="M592 1464q160 0 258 -115.5t78 -279.5q-20 -166 -146.5 -280.5t-287.5 -114.5q-163 0 -261.5 114.5t-76.5 280.5q20 165 147 280t289 115zM502 733q135 0 242 98t124 238q17 138 -66 236t-218 98q-136 0 -244 -98t-125 -236q-17 -140 67 -238t220 -98zM672 1141
q-3 -32 -20.5 -56.5t-43.5 -35.5q-9 -3 -6 -11l37 -125q3 -12 -3.5 -20t-19.5 -8h-8q-23 0 -26 18l-35 131q-2 6 -8 6h-37q-6 0 -10 -8l-15 -123q-3 -24 -26 -24h-7q-23 0 -20 24l39 316q3 24 26 24h95q45 0 69.5 -31t18.5 -77zM520 1200q-8 0 -8 -8l-12 -100q0 -9 6 -9h53
q23 0 39.5 16t19.5 42q3 27 -9.5 43t-35.5 16h-53z" />
    <glyph glyph-name="macron" unicode="&#xaf;" horiz-adv-x="520" 
d="M135 1225q-22 0 -22 24l4 33q2 11 10 18t18 7h471q10 0 16.5 -7t6.5 -18l-4 -33q-1 -10 -9.5 -17t-17.5 -7h-473z" />
    <glyph glyph-name="degree" unicode="&#xb0;" horiz-adv-x="759" 
d="M463 1006q-132 0 -212 94t-65 231q17 136 121 230t236 94t212.5 -94t63.5 -230t-120.5 -230.5t-235.5 -94.5zM473 1087q100 0 177 70.5t89 173.5t-47.5 173.5t-159.5 70.5t-177 -70.5t-89 -173.5t47.5 -173.5t159.5 -70.5z" />
    <glyph glyph-name="plusminus" unicode="&#xb1;" horiz-adv-x="1001" 
d="M600 754q-1 -3 1 -6t5 -3h340q11 0 16.5 -7t4.5 -17l-6 -45q-4 -25 -27 -25h-340q-8 0 -8 -8l-43 -342q0 -10 -8 -17.5t-19 -7.5h-43q-10 0 -16 7t-4 18l41 342q1 3 -1.5 5.5t-5.5 2.5h-340q-10 0 -16 7t-4 18l6 45q0 10 8 17t19 7h340q2 0 5 3t3 6l45 360q0 10 8 17.5
t19 7.5h43q10 0 16 -7t4 -18zM68 0q-10 0 -16.5 7t-4.5 18l6 45q0 10 8 17t19 7h786q11 0 16.5 -7t4.5 -17l-6 -45q-4 -25 -27 -25h-786z" />
    <glyph glyph-name="uni00B2" unicode="&#xb2;" horiz-adv-x="638" 
d="M170 920q-23 0 -20 24l4 31q3 18 14 29q32 35 141 154t166 183q130 149 141 230q7 66 -31.5 105.5t-107.5 39.5q-70 0 -117.5 -40t-54.5 -107l-2 -27q-1 -10 -9.5 -17t-17.5 -7h-34q-11 0 -16.5 7t-4.5 17l4 37q13 95 85.5 153t174.5 58q107 0 164.5 -61t46.5 -156
q-15 -108 -143 -254q-112 -130 -285 -318q-7 -10 2 -10h359q23 0 20 -24l-2 -23q-1 -10 -9.5 -17t-19.5 -7h-448z" />
    <glyph glyph-name="uni00B3" unicode="&#xb3;" horiz-adv-x="638" 
d="M649 1339q21 -68 10 -161q-12 -87 -47 -150q-72 -123 -223 -123q-82 0 -135 45t-68 121q-4 27 -4 80q1 11 9 18t18 7h35q23 0 20 -25q0 -39 2 -55q1 -52 37.5 -84.5t93.5 -32.5q92 0 142 78q32 53 41 121q9 78 -11 135q-31 78 -120 78q-6 0 -31 -5q-21 -6 -33 9l-10 16
q-14 17 4 35l231 246q4 3 3.5 6.5t-5.5 3.5h-325q-11 0 -16.5 7t-4.5 17l2 25q1 10 9.5 17.5t17.5 7.5h414q10 0 16 -7t4 -18l-4 -33q0 -16 -12 -28l-213 -232q-5 -3 -3.5 -6.5t7.5 -3.5q108 -9 149 -109z" />
    <glyph glyph-name="acute" unicode="&#xb4;" horiz-adv-x="374" 
d="M199 1184q-13 0 -17 8t4 20l144 220q13 16 32 16h54q14 0 17.5 -8t-5.5 -21l-154 -219q-11 -16 -30 -16h-45z" />
    <glyph glyph-name="uni00B5" unicode="&#xb5;" horiz-adv-x="1081" 
d="M887 1008q3 24 26 24h56q23 0 20 -24l-121 -983q0 -10 -7.5 -17.5t-18.5 -7.5h-56q-10 0 -16 7t-4 18l12 96q0 6 -3.5 7t-6.5 -5q-103 -137 -295 -137q-135 0 -217 73q-10 7 -10 -4l-56 -440q-4 -25 -26 -25h-58q-10 0 -16 7t-4 18l170 1393q1 10 9.5 17t19.5 7h57
q9 0 15 -7t5 -17l-86 -695q-2 -106 59.5 -168.5t168.5 -62.5q123 0 205.5 74t97.5 196z" />
    <glyph glyph-name="paragraph" unicode="&#xb6;" horiz-adv-x="1120" 
d="M631 1434h403q10 0 16.5 -7t4.5 -18l-219 -1794q-1 -10 -9.5 -17.5t-19.5 -7.5h-35q-10 0 -16 7t-4 18l211 1724q0 9 -7 9h-268q-8 0 -8 -9l-213 -1724q-4 -25 -27 -25h-39q-22 0 -22 25l110 889q0 8 -8 8q-161 9 -253.5 140.5t-69.5 320.5q23 194 159 327.5t314 133.5z
" />
    <glyph glyph-name="periodcentered" unicode="&#xb7;" horiz-adv-x="217" 
d="M29 8q-45 0 -72.5 32t-22.5 77q6 44 42.5 75t78.5 31q43 0 72 -31t25 -75q-6 -44 -42.5 -76.5t-80.5 -32.5z" />
    <glyph glyph-name="cedilla" unicode="&#xb8;" horiz-adv-x="264" 
d="M-63 -371q-21 7 -15 29l6 23q10 24 33 18q52 -11 94 6t58 68q30 93 -68 198q-12 11 -9.5 20t17.5 9h27q16 0 26 -10q127 -116 82 -246q-19 -58 -63.5 -88.5t-92.5 -32t-95 5.5z" />
    <glyph glyph-name="uni00B9" unicode="&#xb9;" horiz-adv-x="362" 
d="M346 1774q15 6 31 6h43q9 0 15 -7.5t5 -17.5l-100 -811q-2 -11 -9.5 -17.5t-17.5 -6.5h-32q-23 0 -23 24l92 744q0 4 -1.5 6.5t-4.5 1.5l-72 -19q-12 -3 -19 3t-5 18l2 14q3 21 20 29z" />
    <glyph glyph-name="ordmasculine" unicode="&#xba;" horiz-adv-x="679" 
d="M395 752q-91 0 -147.5 48.5t-71.5 133.5q-11 63 2 168q11 97 37 166q33 84 103 133t161 49q90 0 148.5 -49t70.5 -133q7 -55 -6 -166q-12 -104 -35 -168q-32 -84 -102.5 -133t-159.5 -49zM403 821q62 0 112.5 39t72.5 101q12 41 26 141q12 92 9 139q-8 63 -48.5 101
t-105.5 38q-62 0 -111 -38t-73 -101q-13 -41 -27 -139q-10 -79 -6 -141q6 -64 46 -102t105 -38zM117 518q-10 0 -16.5 7t-4.5 18l4 37q1 10 9.5 17t17.5 7h494q23 0 20 -24l-4 -37q-4 -25 -27 -25h-493z" />
    <glyph glyph-name="guillemotright" unicode="&#xbb;" horiz-adv-x="1089" 
d="M227 219q-15 0 -18 9.5t8 21.5l297 319q6 6 2 13l-219 319q-8 12 -2.5 21.5t20.5 9.5h54q17 0 28 -14l217 -326q13 -16 -4 -33l-297 -326q-14 -14 -32 -14h-54zM535 219q-14 0 -16.5 9.5t7.5 21.5l297 319q2 4 2 13l-219 319q-8 12 -3 21.5t20 9.5h53q21 0 29 -14
l219 -326q10 -16 -4 -33l-299 -326q-11 -14 -31 -14h-55z" />
    <glyph glyph-name="onequarter" unicode="&#xbc;" horiz-adv-x="1564" 
d="M297 598q0 -10 -8 -17.5t-19 -7.5h-32q-10 0 -16.5 7t-4.5 18l90 743q2 3 -0.5 6.5t-5.5 2.5l-72 -19q-12 -3 -19 3t-5 18l2 14q3 20 22 29l76 32q17 7 31 7h41q10 0 16 -7t4 -18zM1204 1417q14 17 31 17h35q14 0 17.5 -8t-5.5 -21l-1026 -1389q-10 -16 -29 -16h-37
q-14 0 -17.5 8t5.5 21zM1466 311q11 0 16.5 -7t4.5 -17l-2 -27q-1 -10 -9.5 -17t-17.5 -7h-35q-8 0 -8 -9l-24 -202q-1 -10 -9.5 -17.5t-19.5 -7.5h-33q-10 0 -16 7t-4 18l24 202q0 9 -6 9h-342q-23 0 -20 24l2 25q4 20 10 30l303 527q8 18 29 18h32q14 0 18 -8t-3 -21
l-291 -509q-5 -11 4 -11h266q8 0 8 8l25 187q0 10 8 17t19 7h32q11 0 16.5 -7t4.5 -17l-23 -187q0 -8 9 -8h32z" />
    <glyph glyph-name="onehalf" unicode="&#xbd;" horiz-adv-x="1552" 
d="M297 598q0 -10 -8 -17.5t-19 -7.5h-32q-10 0 -16.5 7t-4.5 18l90 743q2 3 -0.5 6.5t-5.5 2.5l-72 -19q-12 -3 -19 3t-5 18l2 14q3 20 22 29l76 32q17 7 31 7h41q10 0 16 -7t4 -18zM1204 1417q14 17 31 17h35q14 0 17.5 -8t-5.5 -21l-1026 -1389q-10 -16 -29 -16h-37
q-14 0 -17.5 8t5.5 21zM1067 82q-7 -10 2 -10h358q10 0 16.5 -7t4.5 -18l-2 -22q-1 -10 -9.5 -17.5t-17.5 -7.5h-450q-9 0 -15.5 7.5t-5.5 17.5l4 30q3 17 15 29q164 176 307 338q130 149 141 229q8 66 -30.5 106t-108.5 40q-69 0 -117 -40.5t-55 -107.5l-2 -26
q-4 -25 -27 -25h-35q-10 0 -16 7t-4 18l4 36q13 95 85.5 153t174.5 58q107 0 164.5 -61t46.5 -156q-15 -108 -143 -254q-97 -112 -285 -317z" />
    <glyph glyph-name="threequarters" unicode="&#xbe;" horiz-adv-x="1767" 
d="M573 702q-72 -122 -223 -122q-84 0 -136.5 44.5t-66.5 120.5q-8 34 -4 80q3 25 27 25h33q25 0 22 -25q-3 -29 0 -55q3 -53 39 -85t94 -32q92 0 142 78q33 61 41 121q9 81 -13 135q-31 78 -118 78q-11 0 -31 -4q-24 -7 -33 8l-12 16q-10 17 4 35l233 246q3 3 1.5 6.5
t-5.5 3.5h-325q-9 0 -15.5 7.5t-5.5 17.5l4 24q4 25 27 25h414q9 0 15 -7.5t5 -17.5l-4 -32q-3 -21 -14 -29l-213 -231q-3 -3 -2 -7t4 -4q114 -9 151 -108q21 -69 10 -162q-9 -85 -45 -150zM1407 1417q14 17 31 17h35q14 0 17.5 -8t-5.5 -21l-1026 -1389q-10 -16 -29 -16
h-37q-14 0 -17.5 8t5.5 21zM1669 311q11 0 16.5 -7t4.5 -17l-2 -27q-1 -10 -9.5 -17t-19.5 -7h-33q-8 0 -8 -9l-27 -202q0 -10 -7.5 -17.5t-18.5 -7.5h-33q-10 0 -16.5 7t-4.5 18l25 202q0 9 -8 9h-340q-23 0 -23 24l4 25q3 17 11 30l303 527q8 18 28 18h33q14 0 18 -8
t-3 -21l-291 -509q-2 -3 -1 -7t5 -4h266q8 0 8 8l25 187q0 10 7.5 17t18.5 7h33q11 0 16.5 -7t4.5 -17l-23 -187q0 -8 8 -8h33z" />
    <glyph glyph-name="questiondown" unicode="&#xbf;" horiz-adv-x="884" 
d="M557 1018q44 0 70.5 -31t21.5 -74q-6 -43 -41 -73.5t-78 -30.5q-42 0 -70 31t-22 73q4 42 40 73.5t79 31.5zM545 625q22 0 22 -25l-16 -129q-7 -53 -31 -97t-57.5 -76t-73 -62t-79 -61t-73.5 -65.5t-58.5 -83t-31.5 -106.5q-13 -112 46 -180t169 -68q113 0 191 69t90 181
l8 66q3 24 29 24l57 -2q9 0 15 -7.5t6 -18.5l-8 -62q-20 -157 -131 -253.5t-271 -96.5q-159 0 -242 95.5t-63 254.5q8 69 33.5 127t59.5 97.5t73.5 73t78 62t71.5 56t55.5 63t27.5 76.5l15 123q1 10 9 17.5t17 7.5h62z" />
    <glyph glyph-name="Agrave" unicode="&#xc0;" horiz-adv-x="1171" 
d="M770 1614q5 -12 -0.5 -20.5t-17.5 -8.5h-47q-19 0 -25 17l-100 219q-6 13 -0.5 20.5t18.5 7.5h53q23 0 29 -16zM975 0q-20 0 -23 20l-53 269q0 6 -6 6h-621q-6 0 -8 -6l-117 -269q-10 -20 -28 -20h-64q-12 0 -17 8t1 21l612 1384q7 21 27 21h86q18 0 22 -21l275 -1384
q3 -13 -4.5 -21t-20.5 -8h-61zM309 395q-2 -3 0 -6.5t6 -3.5h557q4 0 7.5 3.5t1.5 6.5l-172 897q0 4 -5 4t-8 -4z" />
    <glyph glyph-name="Aacute" unicode="&#xc1;" horiz-adv-x="1171" 
d="M907 1849q13 0 17 -7.5t-4 -20.5l-156 -219q-8 -17 -29 -17h-45q-13 0 -16.5 8.5t4.5 20.5l143 219q10 16 31 16h55zM975 0q-20 0 -23 20l-53 269q0 6 -6 6h-621q-6 0 -8 -6l-117 -269q-10 -20 -28 -20h-64q-12 0 -17 8t1 21l612 1384q7 21 27 21h86q18 0 22 -21
l275 -1384q3 -13 -4.5 -21t-20.5 -8h-61zM309 395q-2 -3 0 -6.5t6 -3.5h557q4 0 7.5 3.5t1.5 6.5l-172 897q0 4 -5 4t-8 -4z" />
    <glyph glyph-name="Acircumflex" unicode="&#xc2;" horiz-adv-x="1171" 
d="M766 1759q-4 8 -12 0l-150 -176q-14 -14 -33 -14h-43q-15 0 -18 9t8 21l184 213q15 15 33 15h62q16 0 28 -15l133 -213q7 -12 1.5 -21t-19.5 -9h-43q-17 0 -25 14zM975 0q-20 0 -23 20l-53 269q0 6 -6 6h-621q-6 0 -8 -6l-117 -269q-10 -20 -28 -20h-64q-12 0 -17 8t1 21
l612 1384q7 21 27 21h86q18 0 22 -21l275 -1384q3 -13 -4.5 -21t-20.5 -8h-61zM309 395q-2 -3 0 -6.5t6 -3.5h557q4 0 7.5 3.5t1.5 6.5l-172 897q0 4 -5 4t-8 -4z" />
    <glyph glyph-name="Atilde" unicode="&#xc3;" horiz-adv-x="1171" 
d="M670 1714q-32 0 -55.5 -11t-51.5 -42q-17 -21 -35 -6l-16 12q-18 15 -2 35q68 94 164 94q23 0 46 -8.5t31.5 -14.5t34.5 -24q4 -3 18 -12t20 -13t17.5 -9.5t21 -8t18.5 -2.5q59 0 104 59q21 21 35 9l16 -13q19 -15 4 -33q-35 -53 -82.5 -78.5t-89.5 -25.5q-50 0 -112 49
q-26 23 -44 33t-42 10zM975 0q-20 0 -23 20l-53 269q0 6 -6 6h-621q-6 0 -8 -6l-117 -269q-10 -20 -28 -20h-64q-12 0 -17 8t1 21l612 1384q7 21 27 21h86q18 0 22 -21l275 -1384q3 -13 -4.5 -21t-20.5 -8h-61zM309 395q-2 -3 0 -6.5t6 -3.5h557q4 0 7.5 3.5t1.5 6.5
l-172 897q0 4 -5 4t-8 -4z" />
    <glyph glyph-name="Adieresis" unicode="&#xc4;" horiz-adv-x="1171" 
d="M586 1645q-36 0 -57 24t-17 60q5 34 31.5 57.5t62.5 23.5q35 0 55 -23.5t17 -57.5q-4 -37 -30.5 -60.5t-61.5 -23.5zM909 1645q-37 0 -58 23.5t-17 60.5q5 34 32.5 57.5t63.5 23.5q33 0 52.5 -23.5t16.5 -57.5q-4 -36 -30 -60t-60 -24zM975 0q-20 0 -23 20l-53 269
q0 6 -6 6h-621q-6 0 -8 -6l-117 -269q-10 -20 -28 -20h-64q-12 0 -17 8t1 21l612 1384q7 21 27 21h86q18 0 22 -21l275 -1384q3 -13 -4.5 -21t-20.5 -8h-61zM309 395q-2 -3 0 -6.5t6 -3.5h557q4 0 7.5 3.5t1.5 6.5l-172 897q0 4 -5 4t-8 -4z" />
    <glyph glyph-name="Aring" unicode="&#xc5;" horiz-adv-x="1171" 
d="M737 1571q-84 0 -135.5 60t-42.5 147q10 86 76.5 145t152.5 59q85 0 137 -59t42 -145t-77.5 -146.5t-152.5 -60.5zM780 1919q-57 0 -102.5 -40.5t-52.5 -100.5q-6 -60 28.5 -101t91.5 -41t103 41t53 101t-28.5 100.5t-92.5 40.5zM975 0q-20 0 -23 20l-53 269q0 6 -6 6
h-621q-6 0 -8 -6l-117 -269q-10 -20 -28 -20h-64q-12 0 -17 8t1 21l612 1384q7 21 27 21h86q18 0 22 -21l275 -1384q3 -13 -4.5 -21t-20.5 -8h-61zM309 395q-2 -3 0 -6.5t6 -3.5h557q4 0 7.5 3.5t1.5 6.5l-172 897q0 4 -5 4t-8 -4z" />
    <glyph glyph-name="AE" unicode="&#xc6;" horiz-adv-x="1810" 
d="M1812 1362q-1 -10 -9 -17.5t-17 -7.5h-684q-8 0 -8 -8l-70 -553q0 -8 8 -8h465q10 0 16.5 -7t4.5 -18l-7 -47q-3 -24 -26 -24h-465q-8 0 -8 -8l-70 -560q0 -8 8 -8h682q11 0 16.5 -7t4.5 -17l-4 -47q-1 -10 -9.5 -17.5t-17.5 -7.5h-774q-10 0 -16.5 7t-4.5 18l33 262
q0 8 -8 8h-514q-7 0 -10 -6l-170 -271q-12 -18 -33 -18h-66q-13 0 -16.5 8.5t4.5 20.5l885 1386q13 19 33 19h831q10 0 16.5 -7t6.5 -18zM397 395q-3 -10 4 -10h463q8 0 8 8l113 910q0 4 -1.5 5.5t-4 0.5t-4.5 -4z" />
    <glyph glyph-name="Ccedilla" unicode="&#xc7;" horiz-adv-x="1206" 
d="M1149 1006q-5 -15 -27 -15l-57 -2q-23 0 -23 12l2 13q19 153 -65 246.5t-240 93.5q-158 0 -265.5 -93t-127.5 -247l-72 -594q-19 -154 65.5 -248t242.5 -94q157 0 263.5 94t125.5 248q3 22 26 22l58 -2q11 0 17 -3t5 -7v-10q-25 -196 -165 -317t-343 -121h-10
q-5 0 -6.5 -4t2.5 -7q114 -111 70 -233q-19 -58 -64 -88.5t-93 -32t-95 5.5q-21 7 -15 29l7 22q10 24 32 19q52 -11 94 6t58 68q30 93 -68 198l-30 29h2q-152 34 -228.5 149t-54.5 283l72 584q25 198 164 319t344 121q203 0 313.5 -119.5t85.5 -314.5v-10z" />
    <glyph glyph-name="Egrave" unicode="&#xc8;" horiz-adv-x="1214" 
d="M825 1636q5 -12 -1 -20t-19 -8h-45q-22 0 -27 16l-100 219q-4 13 1 21t19 8h54q18 0 28 -17zM1217 1362q-1 -10 -9.5 -17.5t-17.5 -7.5h-750q-8 0 -8 -8l-70 -553q0 -8 9 -8h530q10 0 16.5 -7t4.5 -18l-7 -47q-3 -24 -26 -24h-531q-8 0 -8 -8l-69 -560q0 -8 8 -8h747
q11 0 16.5 -7t4.5 -17l-4 -47q-1 -10 -9.5 -17.5t-17.5 -7.5h-840q-10 0 -16 7t-4 18l170 1384q4 25 26 25h838q10 0 16.5 -7t6.5 -18z" />
    <glyph glyph-name="Eacute" unicode="&#xc9;" horiz-adv-x="1214" 
d="M961 1872q14 0 17.5 -8t-5.5 -21l-154 -219q-11 -16 -31 -16h-45q-13 0 -16.5 8t4.5 20l143 219q14 17 33 17h54zM1217 1362q-1 -10 -9.5 -17.5t-17.5 -7.5h-750q-8 0 -8 -8l-70 -553q0 -8 9 -8h530q10 0 16.5 -7t4.5 -18l-7 -47q-3 -24 -26 -24h-531q-8 0 -8 -8
l-69 -560q0 -8 8 -8h747q11 0 16.5 -7t4.5 -17l-4 -47q-1 -10 -9.5 -17.5t-17.5 -7.5h-840q-10 0 -16 7t-4 18l170 1384q4 25 26 25h838q10 0 16.5 -7t6.5 -18z" />
    <glyph glyph-name="Ecircumflex" unicode="&#xca;" horiz-adv-x="1214" 
d="M821 1782q-1 3 -6 3t-6 -3l-152 -176q-12 -15 -30 -15h-43q-15 0 -18.5 9.5t7.5 21.5l185 213q11 14 30 14h62q21 0 29 -14l135 -213q7 -12 0.5 -21.5t-21.5 -9.5h-41q-14 0 -26 15zM1217 1362q-1 -10 -9.5 -17.5t-17.5 -7.5h-750q-8 0 -8 -8l-70 -553q0 -8 9 -8h530
q10 0 16.5 -7t4.5 -18l-7 -47q-3 -24 -26 -24h-531q-8 0 -8 -8l-69 -560q0 -8 8 -8h747q11 0 16.5 -7t4.5 -17l-4 -47q-1 -10 -9.5 -17.5t-17.5 -7.5h-840q-10 0 -16 7t-4 18l170 1384q4 25 26 25h838q10 0 16.5 -7t6.5 -18z" />
    <glyph glyph-name="Edieresis" unicode="&#xcb;" horiz-adv-x="1214" 
d="M639 1667q-35 0 -55.5 23.5t-16.5 60.5q3 34 30 58t62 24q36 0 56.5 -24t15.5 -58q-5 -37 -30 -60.5t-62 -23.5zM963 1667q-37 0 -57.5 23.5t-16.5 60.5q5 34 31.5 58t62.5 24q35 0 55 -24t15 -58q-5 -37 -30 -60.5t-60 -23.5zM1217 1362q-1 -10 -9.5 -17.5t-17.5 -7.5
h-750q-8 0 -8 -8l-70 -553q0 -8 9 -8h530q10 0 16.5 -7t4.5 -18l-7 -47q-3 -24 -26 -24h-531q-8 0 -8 -8l-69 -560q0 -8 8 -8h747q11 0 16.5 -7t4.5 -17l-4 -47q-1 -10 -9.5 -17.5t-17.5 -7.5h-840q-10 0 -16 7t-4 18l170 1384q4 25 26 25h838q10 0 16.5 -7t6.5 -18z" />
    <glyph glyph-name="Igrave" unicode="&#xcc;" horiz-adv-x="512" 
d="M444 1636q10 -28 -18 -28h-45q-22 0 -27 16l-100 219q-6 13 0 21t20 8h54q19 0 26 -17zM186 0q-10 0 -16 7t-4 18l170 1384q4 25 26 25h58q10 0 16 -7t4 -18l-170 -1384q0 -10 -7.5 -17.5t-18.5 -7.5h-58z" />
    <glyph glyph-name="Iacute" unicode="&#xcd;" horiz-adv-x="512" 
d="M365 1608q-13 0 -17 8t4 20l144 219q14 17 32 17h54q14 0 17.5 -8t-5.5 -21l-154 -219q-11 -16 -30 -16h-45zM186 0q-10 0 -16 7t-4 18l170 1384q4 25 26 25h58q10 0 16 -7t4 -18l-170 -1384q0 -10 -7.5 -17.5t-18.5 -7.5h-58z" />
    <glyph glyph-name="Icircumflex" unicode="&#xce;" horiz-adv-x="512" 
d="M203 1591q-13 0 -16 9.5t6 21.5l186 213q11 14 31 14h61q21 0 29 -14l135 -213q7 -12 0.5 -21.5t-21.5 -9.5h-41q-17 0 -26 15l-107 176q0 3 -4 3t-6 -3l-151 -176q-12 -15 -31 -15h-45zM186 0q-10 0 -16 7t-4 18l170 1384q4 25 26 25h58q10 0 16 -7t4 -18l-170 -1384
q0 -10 -7.5 -17.5t-18.5 -7.5h-58z" />
    <glyph glyph-name="Idieresis" unicode="&#xcf;" horiz-adv-x="512" 
d="M260 1667q-36 0 -57 24t-17 60q5 34 32.5 58t62.5 24t55.5 -24t15.5 -58q-4 -37 -30.5 -60.5t-61.5 -23.5zM584 1667q-37 0 -57.5 23.5t-16.5 60.5q3 34 30 58t64 24q34 0 54.5 -24t15.5 -58q-5 -37 -30 -60.5t-60 -23.5zM186 0q-10 0 -16 7t-4 18l170 1384q4 25 26 25
h58q10 0 16 -7t4 -18l-170 -1384q0 -10 -7.5 -17.5t-18.5 -7.5h-58z" />
    <glyph glyph-name="Eth" unicode="&#xd0;" horiz-adv-x="1363" 
d="M956 1434q191 0 290 -103.5t77 -281.5l-82 -664q-22 -178 -146 -281.5t-315 -103.5h-456q-10 0 -16.5 7t-4.5 18l82 673q1 3 -1 6t-5 3h-105q-22 0 -22 24l4 33q1 10 9.5 17t17.5 7h106q8 0 8 9l76 612q4 25 27 25h456zM1137 397l80 639q17 139 -55 220t-212 81h-372
q-9 0 -9 -8l-65 -532q-1 -3 1 -6t5 -3h250q23 0 20 -24l-4 -33q0 -10 -7.5 -17t-18.5 -7h-250q-8 0 -8 -9l-74 -594q0 -8 8 -8h373q138 0 228.5 80.5t109.5 220.5z" />
    <glyph glyph-name="Ntilde" unicode="&#xd1;" horiz-adv-x="1345" 
d="M958 1645q-50 0 -112 49q-26 23 -44 33t-42 10q-32 0 -55.5 -11.5t-51.5 -42.5q-17 -21 -35 -6l-16 13q-18 15 -2 34q68 95 164 95q23 0 45.5 -8.5t32.5 -15t35 -23.5q4 -3 22 -15t25.5 -16.5t21 -9.5t25.5 -5q59 0 104 60q20 20 35 8l16 -12q20 -16 -4 -45
q-35 -47 -79.5 -69.5t-84.5 -22.5zM186 0q-10 0 -16 7t-4 18l170 1384q4 25 26 25h60q21 0 27 -17l567 -1192q1 -4 3 -5t4 1t3 6l143 1182q1 10 9.5 17.5t19.5 7.5h57q9 0 15.5 -7.5t5.5 -17.5l-170 -1384q-4 -25 -27 -25h-59q-22 0 -27 16l-567 1194q-1 4 -3 5t-4 -1t-3 -6
l-146 -1183q0 -10 -7.5 -17.5t-18.5 -7.5h-58z" />
    <glyph glyph-name="Ograve" unicode="&#xd2;" horiz-adv-x="1234" 
d="M805 1630q5 -12 -1 -20t-20 -8h-45q-21 0 -26 16l-101 219q-4 13 1.5 21t19.5 8h53q19 0 29 -17zM573 -16q-207 0 -317 128t-84 337l66 536q26 210 167.5 337.5t348.5 127.5q209 0 320 -128t85 -337l-65 -536q-25 -209 -168.5 -337t-352.5 -128zM586 78q161 0 271 100
t132 266l66 543q20 164 -66.5 265.5t-247.5 101.5q-158 0 -267.5 -101.5t-129.5 -265.5l-68 -543q-20 -166 65 -266t245 -100z" />
    <glyph glyph-name="Oacute" unicode="&#xd3;" horiz-adv-x="1234" 
d="M723 1602q-13 0 -16.5 8t4.5 20l143 219q14 17 33 17h53q14 0 17.5 -8t-5.5 -21l-153 -219q-11 -16 -31 -16h-45zM573 -16q-207 0 -317 128t-84 337l66 536q26 210 167.5 337.5t348.5 127.5q209 0 320 -128t85 -337l-65 -536q-25 -209 -168.5 -337t-352.5 -128zM586 78
q161 0 271 100t132 266l66 543q20 164 -66.5 265.5t-247.5 101.5q-158 0 -267.5 -101.5t-129.5 -265.5l-68 -543q-20 -166 65 -266t245 -100z" />
    <glyph glyph-name="Ocircumflex" unicode="&#xd4;" horiz-adv-x="1234" 
d="M561 1585q-14 0 -16 9.5t8 21.5l184 213q11 14 31 14h61q21 0 29 -14l135 -213q7 -12 1 -21.5t-21 -9.5h-41q-19 0 -27 14l-104 177q-1 3 -6 3t-7 -3l-151 -177q-11 -14 -31 -14h-45zM573 -16q-207 0 -317 128t-84 337l66 536q26 210 167.5 337.5t348.5 127.5
q209 0 320 -128t85 -337l-65 -536q-25 -209 -168.5 -337t-352.5 -128zM586 78q161 0 271 100t132 266l66 543q20 164 -66.5 265.5t-247.5 101.5q-158 0 -267.5 -101.5t-129.5 -265.5l-68 -543q-20 -166 65 -266t245 -100z" />
    <glyph glyph-name="Otilde" unicode="&#xd5;" horiz-adv-x="1234" 
d="M903 1638q-24 0 -47.5 9.5t-33.5 16t-34 24.5q-19 16 -28 23t-25 13.5t-33 6.5q-58 0 -104 -54q-19 -19 -35 -6l-16 12q-20 16 -4 35q71 94 164 94q8 0 15 -1t13 -1.5t13 -3t11.5 -4t11.5 -5.5t10 -5.5t10.5 -6.5t9.5 -6.5t10 -7t10 -6.5q3 -2 14 -10t15.5 -11t14.5 -9
t16.5 -8.5t16 -4.5t17.5 -2q60 0 105 60q17 20 35 8l16 -12q20 -16 -4 -45q-35 -47 -80.5 -70t-83.5 -23zM573 -16q-207 0 -317 128t-84 337l66 536q26 210 167.5 337.5t348.5 127.5q209 0 320 -128t85 -337l-65 -536q-25 -209 -168.5 -337t-352.5 -128zM586 78
q161 0 271 100t132 266l66 543q20 164 -66.5 265.5t-247.5 101.5q-158 0 -267.5 -101.5t-129.5 -265.5l-68 -543q-20 -166 65 -266t245 -100z" />
    <glyph glyph-name="Odieresis" unicode="&#xd6;" horiz-adv-x="1234" 
d="M618 1661q-35 0 -55 23.5t-16 60.5q3 34 30 58t62 24q36 0 56.5 -24t15.5 -58q-5 -37 -30.5 -60.5t-62.5 -23.5zM942 1661q-37 0 -57.5 23.5t-16.5 60.5q3 34 30.5 58t64.5 24q35 0 54.5 -24t14.5 -58q-5 -37 -30 -60.5t-60 -23.5zM573 -16q-207 0 -317 128t-84 337
l66 536q26 210 167.5 337.5t348.5 127.5q209 0 320 -128t85 -337l-65 -536q-25 -209 -168.5 -337t-352.5 -128zM586 78q161 0 271 100t132 266l66 543q20 164 -66.5 265.5t-247.5 101.5q-158 0 -267.5 -101.5t-129.5 -265.5l-68 -543q-20 -166 65 -266t245 -100z" />
    <glyph glyph-name="multiply" unicode="&#xd7;" horiz-adv-x="827" 
d="M803 942q14 -18 -4 -33l-271 -247q-8 -8 -2 -13l205 -241q15 -19 -4 -35l-35 -33q-20 -16 -33 0l-204 242q-7 6 -13 0l-270 -248q-18 -18 -33 0l-28 33q-14 17 4 32l270 248q7 7 2 12l-217 256q-13 16 4 33l39 35q17 17 31 0l217 -256q6 -6 12 0l270 248q17 17 33 0z" />
    <glyph glyph-name="Oslash" unicode="&#xd8;" horiz-adv-x="1241" 
d="M1042 1368q-4 -7 2 -10q151 -129 121 -373l-65 -536q-26 -210 -168.5 -337.5t-351.5 -127.5q-162 0 -267 82q-8 4 -12 -5l-65 -116q-11 -19 -31 -19h-37q-14 0 -18.5 8t2.5 21l96 166q3 5 -2 10q-92 125 -68 318l66 536q26 210 167.5 337.5t348.5 127.5q122 0 207 -43
q10 -3 12 4l51 92q11 19 31 19h37q30 0 14 -29zM283 444q-12 -118 24 -198q1 -3 2.5 -4t3 0t2.5 4l603 1059q3 9 -3 12q-70 37 -167 37q-158 0 -268 -101.5t-130 -265.5zM993 444l68 543q21 169 -70 270q-8 5 -12 -2l-617 -1085q-2 -5 3 -10q85 -82 227 -82q161 0 271 100
t130 266z" />
    <glyph glyph-name="Ugrave" unicode="&#xd9;" horiz-adv-x="1296" 
d="M838 1638q4 -12 -2 -20t-19 -8h-45q-22 0 -27 16l-100 219q-4 13 1.5 21t19.5 8h53q19 0 29 -16zM606 -16q-207 0 -318.5 124t-86.5 326l118 975q1 10 9.5 17.5t17.5 7.5h57q11 0 17.5 -7.5t5.5 -17.5l-121 -979q-20 -157 66.5 -253.5t246.5 -96.5t269.5 96.5
t128.5 253.5l121 979q4 25 26 25h58q10 0 16 -7t4 -18l-119 -975q-25 -203 -166 -326.5t-350 -123.5z" />
    <glyph glyph-name="Uacute" unicode="&#xda;" horiz-adv-x="1296" 
d="M756 1610q-13 0 -17 8t4 20l144 220q13 16 33 16h53q14 0 17.5 -8t-5.5 -21l-154 -219q-11 -16 -30 -16h-45zM606 -16q-207 0 -318.5 124t-86.5 326l118 975q1 10 9.5 17.5t17.5 7.5h57q11 0 17.5 -7.5t5.5 -17.5l-121 -979q-20 -157 66.5 -253.5t246.5 -96.5t269.5 96.5
t128.5 253.5l121 979q4 25 26 25h58q10 0 16 -7t4 -18l-119 -975q-25 -203 -166 -326.5t-350 -123.5z" />
    <glyph glyph-name="Ucircumflex" unicode="&#xdb;" horiz-adv-x="1296" 
d="M594 1593q-14 0 -16 9.5t8 21.5l184 213q11 14 31 14h61q21 0 29 -14l135 -213q7 -12 1 -21.5t-21 -9.5h-41q-18 0 -27 15l-104 176q-2 3 -7 3t-6 -3l-151 -176q-12 -15 -31 -15h-45zM606 -16q-207 0 -318.5 124t-86.5 326l118 975q1 10 9.5 17.5t17.5 7.5h57
q11 0 17.5 -7.5t5.5 -17.5l-121 -979q-20 -157 66.5 -253.5t246.5 -96.5t269.5 96.5t128.5 253.5l121 979q4 25 26 25h58q10 0 16 -7t4 -18l-119 -975q-25 -203 -166 -326.5t-350 -123.5z" />
    <glyph glyph-name="Udieresis" unicode="&#xdc;" horiz-adv-x="1296" 
d="M651 1669q-35 0 -55 23.5t-16 60.5q3 34 30 58t62 24q36 0 56 -24t15 -58q-5 -37 -30 -60.5t-62 -23.5zM975 1669q-37 0 -57.5 23.5t-16.5 60.5q3 34 30 58t64 24q35 0 55 -24t15 -58q-5 -37 -30 -60.5t-60 -23.5zM606 -16q-207 0 -318.5 124t-86.5 326l118 975
q1 10 9.5 17.5t17.5 7.5h57q11 0 17.5 -7.5t5.5 -17.5l-121 -979q-20 -157 66.5 -253.5t246.5 -96.5t269.5 96.5t128.5 253.5l121 979q4 25 26 25h58q10 0 16 -7t4 -18l-119 -975q-25 -203 -166 -326.5t-350 -123.5z" />
    <glyph glyph-name="Yacute" unicode="&#xdd;" horiz-adv-x="1099" 
d="M655 1583q-13 0 -16.5 8.5t4.5 20.5l143 219q13 16 33 16h53q14 0 18 -7.5t-5 -20.5l-154 -220q-11 -16 -31 -16h-45zM483 0q-10 0 -16 7t-4 18l76 626v11l-322 743q-6 13 0.5 21t20.5 8h57q19 0 29 -17l276 -641q2 -3 6 -3t6 3l435 641q10 17 30 17h58q14 0 18.5 -8
t-4.5 -21l-504 -743q-2 -2 -2 -11l-78 -626q-4 -25 -26 -25h-56z" />
    <glyph glyph-name="Thorn" unicode="&#xde;" horiz-adv-x="1120" 
d="M764 1104q167 0 258.5 -108t69.5 -281t-140.5 -279t-287.5 -106h-361q-6 0 -10 -8l-35 -297q-1 -10 -9.5 -17.5t-17.5 -7.5h-59q-9 0 -15 7.5t-5 17.5l170 1384q1 10 9 17.5t17 7.5h58q22 0 22 -25l-37 -297q0 -8 6 -8h367zM670 422q125 0 212.5 80t102.5 211
q17 134 -50 214.5t-194 80.5h-356q-2 0 -5 -3t-3 -6l-70 -569q0 -8 6 -8h357z" />
    <glyph glyph-name="germandbls" unicode="&#xdf;" horiz-adv-x="1159" 
d="M158 0q-10 0 -16.5 7t-6.5 18l127 1034q24 182 149.5 287.5t305.5 105.5q202 0 301 -97.5t82 -275.5q-12 -115 -69.5 -196.5t-151.5 -116.5q-3 -1 -4 -2.5t0 -3t4 -2.5q86 -39 126 -134.5t23 -230.5q-24 -187 -153 -290t-357 -103h-151q-9 0 -15.5 7.5t-5.5 17.5l6 45
q2 11 9.5 17.5t17.5 6.5h162q172 0 268 79.5t115 227.5q38 307 -262 316h-150q-23 0 -23 24l7 39q4 25 26 25h154q145 0 225 71t94 201q22 281 -284 281q-129 0 -225.5 -78t-116.5 -215l-127 -1040q-4 -25 -27 -25h-57z" />
    <glyph glyph-name="agrave" unicode="&#xe0;" 
d="M672 1212q4 -12 -2 -20t-19 -8h-45q-18 0 -26 16l-101 219q-4 13 1.5 21t19.5 8h53q19 0 29 -16zM872 1008q2 11 9.5 17.5t17.5 6.5h57q23 0 23 -24l-121 -983q-1 -10 -9.5 -17.5t-19.5 -7.5h-57q-9 0 -15 7.5t-5 17.5l12 92q0 5 -3.5 6.5t-6.5 -2.5q-52 -65 -125 -101
t-158 -36q-136 0 -219.5 73.5t-101.5 198.5q-12 81 8 258q24 183 53 258q47 127 150.5 202t240.5 75q85 0 148.5 -36t99.5 -102q3 -4 6.5 -2.5t5.5 6.5zM758 272q19 38 30.5 87t24.5 155q13 110 13.5 163.5t-9.5 86.5q-9 83 -66 135.5t-149 52.5q-94 0 -168.5 -52
t-107.5 -134q-22 -44 -36 -93.5t-26 -156.5q-20 -164 -4 -244q11 -87 74 -139.5t160 -52.5q94 0 163 53t101 139z" />
    <glyph glyph-name="aacute" unicode="&#xe1;" 
d="M807 1448q14 0 17.5 -8t-5.5 -21l-153 -219q-11 -16 -29 -16h-47q-12 0 -15.5 8t3.5 20l145 220q10 16 31 16h53zM872 1008q2 11 9.5 17.5t17.5 6.5h57q23 0 23 -24l-121 -983q-1 -10 -9.5 -17.5t-19.5 -7.5h-57q-9 0 -15 7.5t-5 17.5l12 92q0 5 -3.5 6.5t-6.5 -2.5
q-52 -65 -125 -101t-158 -36q-136 0 -219.5 73.5t-101.5 198.5q-12 81 8 258q24 183 53 258q47 127 150.5 202t240.5 75q85 0 148.5 -36t99.5 -102q3 -4 6.5 -2.5t5.5 6.5zM758 272q19 38 30.5 87t24.5 155q13 110 13.5 163.5t-9.5 86.5q-9 83 -66 135.5t-149 52.5
q-94 0 -168.5 -52t-107.5 -134q-22 -44 -36 -93.5t-26 -156.5q-20 -164 -4 -244q11 -87 74 -139.5t160 -52.5q94 0 163 53t101 139z" />
    <glyph glyph-name="acircumflex" unicode="&#xe2;" 
d="M668 1358q-2 3 -7 3t-6 -3l-151 -176q-12 -15 -31 -15h-43q-15 0 -18 9.5t8 21.5l184 213q14 14 31 14h63q19 0 27 -14l135 -213q7 -12 1 -21.5t-21 -9.5h-41q-15 0 -27 15zM872 1008q2 11 9.5 17.5t17.5 6.5h57q23 0 23 -24l-121 -983q-1 -10 -9.5 -17.5t-19.5 -7.5h-57
q-9 0 -15 7.5t-5 17.5l12 92q0 5 -3.5 6.5t-6.5 -2.5q-52 -65 -125 -101t-158 -36q-136 0 -219.5 73.5t-101.5 198.5q-12 81 8 258q24 183 53 258q47 127 150.5 202t240.5 75q85 0 148.5 -36t99.5 -102q3 -4 6.5 -2.5t5.5 6.5zM758 272q19 38 30.5 87t24.5 155
q13 110 13.5 163.5t-9.5 86.5q-9 83 -66 135.5t-149 52.5q-94 0 -168.5 -52t-107.5 -134q-22 -44 -36 -93.5t-26 -156.5q-20 -164 -4 -244q11 -87 74 -139.5t160 -52.5q94 0 163 53t101 139z" />
    <glyph glyph-name="atilde" unicode="&#xe3;" 
d="M571 1313q-32 0 -55 -11t-51 -42q-20 -20 -35 -7l-16 13q-17 14 -4 34q71 95 165 95q23 0 45.5 -8.5t32.5 -15t35 -23.5q3 -2 14 -10t15.5 -11t14.5 -9t16.5 -8.5t16 -4.5t17.5 -2q60 0 105 59q17 20 35 8l16 -12q17 -14 4 -33q-35 -53 -82.5 -78.5t-89.5 -25.5
q-51 0 -113 49q-26 23 -44 33t-42 10zM872 1008q2 11 9.5 17.5t17.5 6.5h57q23 0 23 -24l-121 -983q-1 -10 -9.5 -17.5t-19.5 -7.5h-57q-9 0 -15 7.5t-5 17.5l12 92q0 5 -3.5 6.5t-6.5 -2.5q-52 -65 -125 -101t-158 -36q-136 0 -219.5 73.5t-101.5 198.5q-12 81 8 258
q24 183 53 258q47 127 150.5 202t240.5 75q85 0 148.5 -36t99.5 -102q3 -4 6.5 -2.5t5.5 6.5zM758 272q19 38 30.5 87t24.5 155q13 110 13.5 163.5t-9.5 86.5q-9 83 -66 135.5t-149 52.5q-94 0 -168.5 -52t-107.5 -134q-22 -44 -36 -93.5t-26 -156.5q-20 -164 -4 -244
q11 -87 74 -139.5t160 -52.5q94 0 163 53t101 139z" />
    <glyph glyph-name="adieresis" unicode="&#xe4;" 
d="M485 1243q-35 0 -55 23.5t-16 60.5q3 34 30 58t62 24q36 0 56.5 -24t15.5 -58q-5 -37 -30.5 -60.5t-62.5 -23.5zM811 1243q-38 0 -59.5 23.5t-16.5 60.5q5 34 31.5 58t64.5 24q33 0 53 -24t15 -58q-4 -37 -29 -60.5t-59 -23.5zM872 1008q2 11 9.5 17.5t17.5 6.5h57
q23 0 23 -24l-121 -983q-1 -10 -9.5 -17.5t-19.5 -7.5h-57q-9 0 -15 7.5t-5 17.5l12 92q0 5 -3.5 6.5t-6.5 -2.5q-52 -65 -125 -101t-158 -36q-136 0 -219.5 73.5t-101.5 198.5q-12 81 8 258q24 183 53 258q47 127 150.5 202t240.5 75q85 0 148.5 -36t99.5 -102
q3 -4 6.5 -2.5t5.5 6.5zM758 272q19 38 30.5 87t24.5 155q13 110 13.5 163.5t-9.5 86.5q-9 83 -66 135.5t-149 52.5q-94 0 -168.5 -52t-107.5 -134q-22 -44 -36 -93.5t-26 -156.5q-20 -164 -4 -244q11 -87 74 -139.5t160 -52.5q94 0 163 53t101 139z" />
    <glyph glyph-name="aring" unicode="&#xe5;" 
d="M639 1169q-86 0 -137.5 60t-40.5 147q10 86 76 145.5t151 59.5q86 0 138.5 -59.5t41.5 -145.5q-10 -86 -77 -146.5t-152 -60.5zM682 1518q-57 0 -103 -41t-53 -101t28.5 -100.5t92.5 -40.5q56 0 102.5 41t53.5 100t-29 100.5t-92 41.5zM872 1008q2 11 9.5 17.5t17.5 6.5
h57q23 0 23 -24l-121 -983q-1 -10 -9.5 -17.5t-19.5 -7.5h-57q-9 0 -15 7.5t-5 17.5l12 92q0 5 -3.5 6.5t-6.5 -2.5q-52 -65 -125 -101t-158 -36q-136 0 -219.5 73.5t-101.5 198.5q-12 81 8 258q24 183 53 258q47 127 150.5 202t240.5 75q85 0 148.5 -36t99.5 -102
q3 -4 6.5 -2.5t5.5 6.5zM758 272q19 38 30.5 87t24.5 155q13 110 13.5 163.5t-9.5 86.5q-9 83 -66 135.5t-149 52.5q-94 0 -168.5 -52t-107.5 -134q-22 -44 -36 -93.5t-26 -156.5q-20 -164 -4 -244q11 -87 74 -139.5t160 -52.5q94 0 163 53t101 139z" />
    <glyph glyph-name="ae" unicode="&#xe6;" horiz-adv-x="1650" 
d="M399 -16q-68 0 -124.5 15t-101.5 47t-66.5 89t-12.5 133q19 149 138 232.5t311 83.5h237q7 0 11 8l12 104q14 116 -41 186t-187 70q-98 0 -169 -41.5t-97 -113.5q-9 -22 -30 -19l-58 8q-10 2 -15 9t-1 18q34 105 139.5 170.5t245.5 65.5q120 0 195 -51.5t98 -137.5
q0 -3 1 -4t3 0t4 4q50 82 140 135.5t196 53.5q135 0 225.5 -76.5t103.5 -202.5q8 -75 -12 -254q-6 -27 -28 -27h-623q-7 0 -10 -8q-1 -13 -8 -70t-9 -92q-11 -113 62.5 -173t193.5 -60q95 0 168 43.5t115 120.5q12 21 33 12l35 -16q22 -11 10 -33q-51 -102 -153.5 -165.5
t-231.5 -63.5q-116 0 -195.5 48t-105.5 134q0 5 -3 5.5t-6 -3.5q-49 -88 -156 -136t-233 -48zM895 592q0 -8 6 -8h537q7 0 10 8q11 104 8 141q-8 97 -73 158t-169 61t-183 -61t-109 -158q-11 -41 -27 -141zM420 74q79 0 149.5 24t123.5 80t63 135l20 168q0 8 -6 8h-229
q-143 0 -235 -54.5t-105 -158.5q-12 -98 49 -150t170 -52z" />
    <glyph glyph-name="ccedilla" unicode="&#xe7;" horiz-adv-x="1026" 
d="M807 285l4 8q6 22 31 18l51 -6q24 -3 18 -29q-4 -16 -12 -32q-37 -107 -138 -178.5t-233 -81.5q-13 0 -4 -9q113 -113 70 -235q-20 -57 -65.5 -88t-92.5 -32.5t-94 5.5q-21 6 -14 29l6 22q11 25 33 19q52 -11 93.5 6t57.5 68q18 55 -9 111.5t-81 105.5q-2 4 -10 4
q-109 20 -177.5 92.5t-82.5 179.5q-15 100 6 256q18 154 55 254q48 125 157 201t249 76q141 0 234.5 -74.5t107.5 -183.5q6 -27 6 -54q0 -22 -25 -26l-57 -9q-22 -3 -25 23q0 17 -2 25q-8 86 -76 144t-174 58q-110 0 -189.5 -59.5t-111.5 -157.5q-27 -73 -45 -219
q-18 -152 -8 -217q6 -100 71.5 -159.5t174.5 -59.5q108 0 192 58.5t109 146.5z" />
    <glyph glyph-name="egrave" unicode="&#xe8;" horiz-adv-x="1054" 
d="M666 1229q5 -12 -1.5 -20.5t-19.5 -8.5h-45q-19 0 -25 17l-100 219q-12 28 19 28h53q22 0 28 -16zM510 78q97 1 173 46.5t118 121.5q15 21 33 12l34 -14q23 -12 11 -33q-56 -104 -157 -165.5t-230 -61.5q-138 0 -224 69.5t-108 190.5q-17 89 6 274q7 69 11.5 102.5
t13 73.5t20.5 70q48 130 155.5 207.5t249.5 77.5q159 0 246.5 -86t93.5 -236q7 -62 -12 -219q-3 -27 -26 -27h-646q-7 0 -10 -8q-15 -126 -10 -176q8 -99 76.5 -159t181.5 -60zM309 739q-16 -42 -33 -161q-3 -9 7 -9h555q8 0 8 9q12 97 8 155q-8 98 -74.5 158.5t-173.5 60.5
q-108 0 -186.5 -58.5t-110.5 -154.5z" />
    <glyph glyph-name="eacute" unicode="&#xe9;" horiz-adv-x="1054" 
d="M801 1464q14 0 17.5 -7t-5.5 -21l-154 -219q-9 -17 -28 -17h-47q-12 0 -16 8.5t3 20.5l146 219q10 16 31 16h53zM510 78q97 1 173 46.5t118 121.5q15 21 33 12l34 -14q23 -12 11 -33q-56 -104 -157 -165.5t-230 -61.5q-138 0 -224 69.5t-108 190.5q-17 89 6 274
q7 69 11.5 102.5t13 73.5t20.5 70q48 130 155.5 207.5t249.5 77.5q159 0 246.5 -86t93.5 -236q7 -62 -12 -219q-3 -27 -26 -27h-646q-7 0 -10 -8q-15 -126 -10 -176q8 -99 76.5 -159t181.5 -60zM309 739q-16 -42 -33 -161q-3 -9 7 -9h555q8 0 8 9q12 97 8 155
q-8 98 -74.5 158.5t-173.5 60.5q-108 0 -186.5 -58.5t-110.5 -154.5z" />
    <glyph glyph-name="ecircumflex" unicode="&#xea;" horiz-adv-x="1054" 
d="M662 1374q-2 3 -7 3t-6 -3l-149 -176q-14 -14 -33 -14h-43q-15 0 -18 9t8 21l184 213q15 15 33 15h61q18 0 27 -15l135 -213q7 -12 1.5 -21t-19.5 -9h-43q-16 0 -27 14zM510 78q97 1 173 46.5t118 121.5q15 21 33 12l34 -14q23 -12 11 -33q-56 -104 -157 -165.5
t-230 -61.5q-138 0 -224 69.5t-108 190.5q-17 89 6 274q7 69 11.5 102.5t13 73.5t20.5 70q48 130 155.5 207.5t249.5 77.5q159 0 246.5 -86t93.5 -236q7 -62 -12 -219q-3 -27 -26 -27h-646q-7 0 -10 -8q-15 -126 -10 -176q8 -99 76.5 -159t181.5 -60zM309 739
q-16 -42 -33 -161q-3 -9 7 -9h555q8 0 8 9q12 97 8 155q-8 98 -74.5 158.5t-173.5 60.5q-108 0 -186.5 -58.5t-110.5 -154.5z" />
    <glyph glyph-name="edieresis" unicode="&#xeb;" horiz-adv-x="1054" 
d="M481 1260q-37 0 -57 23t-16 60q5 34 31.5 58t62.5 24q35 0 54.5 -24t14.5 -58q-4 -37 -29.5 -60t-60.5 -23zM805 1260q-38 0 -59.5 23t-16.5 60q5 34 31.5 58t64.5 24q33 0 53 -24t17 -58q-4 -36 -30 -59.5t-60 -23.5zM510 78q97 1 173 46.5t118 121.5q15 21 33 12
l34 -14q23 -12 11 -33q-56 -104 -157 -165.5t-230 -61.5q-138 0 -224 69.5t-108 190.5q-17 89 6 274q7 69 11.5 102.5t13 73.5t20.5 70q48 130 155.5 207.5t249.5 77.5q159 0 246.5 -86t93.5 -236q7 -62 -12 -219q-3 -27 -26 -27h-646q-7 0 -10 -8q-15 -126 -10 -176
q8 -99 76.5 -159t181.5 -60zM309 739q-16 -42 -33 -161q-3 -9 7 -9h555q8 0 8 9q12 97 8 155q-8 98 -74.5 158.5t-173.5 60.5q-108 0 -186.5 -58.5t-110.5 -154.5z" />
    <glyph glyph-name="igrave" unicode="&#xec;" horiz-adv-x="430" 
d="M350 1231q5 -12 -1 -20.5t-19 -8.5h-45q-19 0 -27 17l-100 219q-9 28 20 28h53q19 0 29 -16zM143 0q-10 0 -16 7t-4 18l121 983q0 10 7.5 17t18.5 7h58q23 0 20 -24l-121 -983q-4 -25 -26 -25h-58z" />
    <glyph glyph-name="iacute" unicode="&#xed;" horiz-adv-x="430" 
d="M268 1202q-12 0 -15.5 8.5t3.5 20.5l145 219q10 16 31 16h53q14 0 18 -7t-5 -21l-154 -219q-11 -17 -29 -17h-47zM143 0q-10 0 -16 7t-4 18l121 983q0 10 7.5 17t18.5 7h58q23 0 20 -24l-121 -983q-4 -25 -26 -25h-58z" />
    <glyph glyph-name="icircumflex" unicode="&#xee;" horiz-adv-x="430" 
d="M109 1186q-15 0 -18.5 9.5t7.5 21.5l185 213q14 14 30 14h64q18 0 26 -14l136 -213q7 -12 0.5 -21.5t-21.5 -9.5h-41q-15 0 -26 14l-105 176q-2 3 -6 3t-6 -3l-152 -176q-11 -14 -30 -14h-43zM143 0q-10 0 -16 7t-4 18l121 983q0 10 7.5 17t18.5 7h58q23 0 20 -24
l-121 -983q-4 -25 -26 -25h-58z" />
    <glyph glyph-name="idieresis" unicode="&#xef;" horiz-adv-x="579" 
d="M242 1264q-35 0 -55.5 23.5t-16.5 60.5q3 34 30 58t62 24q36 0 56.5 -24t15.5 -58q-5 -37 -30 -60.5t-62 -23.5zM567 1264q-38 0 -59 23.5t-16 60.5q5 34 31.5 58t62.5 24q35 0 54.5 -24t14.5 -58q-4 -37 -29 -60.5t-59 -23.5zM225 0q-22 0 -22 25l121 983q1 10 9 17
t17 7h60q9 0 15 -7t5 -17l-121 -983q-4 -25 -26 -25h-58z" />
    <glyph glyph-name="eth" unicode="&#xf0;" horiz-adv-x="1038" 
d="M936 723q0 -64 -18 -219q-19 -175 -46 -250q-47 -121 -155.5 -195.5t-245.5 -74.5q-136 0 -223 74t-105 196q-5 67 -2.5 110.5t15.5 141.5q10 77 13.5 104t12.5 69.5t21 72.5q39 109 129 178.5t207 75.5q81 6 157 -15t119 -67q3 -5 6 -1q1 2 0 5q-24 125 -114 262
q-4 8 -11 4l-176 -55q-25 -8 -28 16l-5 23q-3 21 21 28l139 43q4 1 5.5 5.5t-1.5 7.5q-61 74 -129 141q-12 12 -7 21.5t22 9.5h63q16 0 29 -13q5 -6 51 -55t70 -78q5 -5 10 -2l149 45q24 7 27 -16l4 -23q3 -23 -20 -30l-111 -35q-11 -3 -6 -8q146 -205 133 -496zM774 289
q16 42 37 213q20 170 16 211q-8 97 -72.5 156t-168.5 59q-102 0 -179.5 -59.5t-107.5 -155.5q-18 -49 -39 -211q-19 -163 -14 -213q8 -98 70 -157.5t165 -59.5q104 0 183 60t110 157z" />
    <glyph glyph-name="ntilde" unicode="&#xf1;" 
d="M571 1313q-32 0 -55 -11t-51 -42q-20 -20 -35 -7l-16 13q-17 14 -4 34q71 95 165 95q23 0 45.5 -8.5t32.5 -15t35 -23.5q3 -2 14 -10t15.5 -11t14.5 -9t16.5 -8.5t16 -4.5t17.5 -2q60 0 105 59q17 20 35 8l16 -12q17 -14 4 -33q-35 -53 -82.5 -78.5t-89.5 -25.5
q-51 0 -113 49q-26 23 -44 33t-42 10zM657 1047q152 0 234 -96.5t63 -254.5l-84 -671q0 -10 -7.5 -17.5t-18.5 -7.5h-58q-10 0 -16 7t-4 18l80 651q15 122 -47 198t-176 76q-120 0 -203 -75t-98 -195l-80 -655q-4 -25 -27 -25h-57q-10 0 -16.5 7t-6.5 18l121 983
q1 10 9.5 17t19.5 7h57q9 0 15 -7t5 -17l-12 -97q0 -12 8 -4q106 140 299 140z" />
    <glyph glyph-name="ograve" unicode="&#xf2;" horiz-adv-x="1071" 
d="M674 1229q5 -12 -1.5 -20.5t-19.5 -8.5h-45q-18 0 -26 17l-101 219q-9 28 21 28h53q19 0 29 -16zM496 -16q-143 0 -232 75t-108 203q-15 85 8 256q17 157 51 254q52 127 161 202t249 75q141 0 232 -75.5t108 -201.5q12 -79 -9 -254q-23 -175 -53 -256
q-50 -127 -159.5 -202.5t-247.5 -75.5zM506 80q106 0 187.5 60t115.5 159q22 65 39 217q19 159 14 217q-9 99 -76.5 159t-173.5 60q-107 0 -188 -59.5t-115 -159.5q-23 -64 -39 -217q-21 -168 -14 -217q9 -101 75.5 -160t174.5 -59z" />
    <glyph glyph-name="oacute" unicode="&#xf3;" horiz-adv-x="1071" 
d="M592 1200q-12 0 -15.5 8.5t3.5 20.5l145 219q10 16 31 16h53q14 0 17.5 -7t-5.5 -21l-153 -219q-11 -17 -29 -17h-47zM496 -16q-143 0 -232 75t-108 203q-15 85 8 256q17 157 51 254q52 127 161 202t249 75q141 0 232 -75.5t108 -201.5q12 -79 -9 -254q-23 -175 -53 -256
q-50 -127 -159.5 -202.5t-247.5 -75.5zM506 80q106 0 187.5 60t115.5 159q22 65 39 217q19 159 14 217q-9 99 -76.5 159t-173.5 60q-107 0 -188 -59.5t-115 -159.5q-23 -64 -39 -217q-21 -168 -14 -217q9 -101 75.5 -160t174.5 -59z" />
    <glyph glyph-name="ocircumflex" unicode="&#xf4;" horiz-adv-x="1071" 
d="M432 1184q-15 0 -18 9t8 21l184 213q15 15 31 15h63q18 0 27 -15l135 -213q7 -12 1 -21t-21 -9h-41q-16 0 -27 14l-104 176q-2 3 -7 3t-6 -3l-151 -176q-11 -14 -31 -14h-43zM496 -16q-143 0 -232 75t-108 203q-15 85 8 256q17 157 51 254q52 127 161 202t249 75
q141 0 232 -75.5t108 -201.5q12 -79 -9 -254q-23 -175 -53 -256q-50 -127 -159.5 -202.5t-247.5 -75.5zM506 80q106 0 187.5 60t115.5 159q22 65 39 217q19 159 14 217q-9 99 -76.5 159t-173.5 60q-107 0 -188 -59.5t-115 -159.5q-23 -64 -39 -217q-21 -168 -14 -217
q9 -101 75.5 -160t174.5 -59z" />
    <glyph glyph-name="otilde" unicode="&#xf5;" horiz-adv-x="1071" 
d="M772 1237q-51 0 -113 49q-26 23 -44 33t-42 10q-32 0 -55 -11t-51 -42q-19 -19 -35 -6l-16 12q-18 15 -4 35q70 94 166 94q23 0 46 -8.5t31.5 -14.5t34.5 -24q3 -2 14 -10t15.5 -11t14.5 -9t16.5 -8.5t16 -4.5t17.5 -2q60 0 105 59q17 20 35 8l16 -12q20 -16 -4 -45
q-35 -47 -79.5 -69.5t-84.5 -22.5zM496 -16q-143 0 -232 75t-108 203q-15 85 8 256q17 157 51 254q52 127 161 202t249 75q141 0 232 -75.5t108 -201.5q12 -79 -9 -254q-23 -175 -53 -256q-50 -127 -159.5 -202.5t-247.5 -75.5zM506 80q106 0 187.5 60t115.5 159
q22 65 39 217q19 159 14 217q-9 99 -76.5 159t-173.5 60q-107 0 -188 -59.5t-115 -159.5q-23 -64 -39 -217q-21 -168 -14 -217q9 -101 75.5 -160t174.5 -59z" />
    <glyph glyph-name="odieresis" unicode="&#xf6;" horiz-adv-x="1071" 
d="M487 1260q-35 0 -55 23t-16 60q3 34 30 58t62 24q36 0 56.5 -24t15.5 -58q-5 -37 -30.5 -60t-62.5 -23zM813 1260q-38 0 -59.5 23t-16.5 60q5 34 32 58t65 24q33 0 52.5 -24t14.5 -58q-4 -37 -29 -60t-59 -23zM496 -16q-143 0 -232 75t-108 203q-15 85 8 256
q17 157 51 254q52 127 161 202t249 75q141 0 232 -75.5t108 -201.5q12 -79 -9 -254q-23 -175 -53 -256q-50 -127 -159.5 -202.5t-247.5 -75.5zM506 80q106 0 187.5 60t115.5 159q22 65 39 217q19 159 14 217q-9 99 -76.5 159t-173.5 60q-107 0 -188 -59.5t-115 -159.5
q-23 -64 -39 -217q-21 -168 -14 -217q9 -101 75.5 -160t174.5 -59z" />
    <glyph glyph-name="divide" unicode="&#xf7;" horiz-adv-x="1001" 
d="M571 913q-40 0 -64.5 29t-19.5 70q4 39 36 67.5t71 28.5q40 0 65 -28t21 -68q-4 -41 -37 -70t-72 -29zM143 625q-9 0 -15 7t-5 17l6 45q4 25 27 25h786q10 0 16.5 -7t4.5 -18l-5 -45q-1 -10 -9 -17t-17 -7h-789zM494 274q-41 0 -65 29.5t-19 69.5q4 40 36 69t70 29
q40 0 65.5 -29t20.5 -69q-4 -40 -37 -69.5t-71 -29.5z" />
    <glyph glyph-name="oslash" unicode="&#xf8;" horiz-adv-x="1081" 
d="M975 772q13 -87 -10 -254q-19 -168 -54 -256q-48 -127 -157.5 -202.5t-249.5 -75.5q-141 0 -234 77q-7 7 -10 0l-78 -104q-7 -10 -17.5 -12t-17.5 6l-30 24q-17 14 -2 35l90 119q2 4 2 12q-31 47 -41 121q-14 81 6 256q21 161 53 254q52 127 161 202t249 75
q126 0 211 -60q7 -4 10 2l66 86q13 23 34 6l31 -24q17 -14 2 -35l-69 -94q-6 -6 -2 -10q45 -64 57 -148zM264 299q6 -30 15 -57q0 -7 10 0l493 651q7 7 0 10q-64 49 -161 49q-106 0 -187 -59.5t-115 -159.5q-21 -60 -38 -217q-21 -172 -17 -217zM819 299q22 65 39 217
q19 159 14 217q-3 49 -24 90q-8 8 -12 0l-502 -665q-7 -7 0 -11q64 -67 182 -67q106 0 187.5 60t115.5 159z" />
    <glyph glyph-name="ugrave" unicode="&#xf9;" horiz-adv-x="1062" 
d="M668 1212q4 -12 -2 -20t-19 -8h-45q-19 0 -27 16l-98 219q-6 13 -0.5 21t19.5 8h53q19 0 29 -16zM870 1008q2 11 9.5 17.5t17.5 6.5h55q23 0 23 -24l-121 -983q-1 -10 -9.5 -17.5t-17.5 -7.5h-57q-9 0 -15 7.5t-5 17.5l12 96q0 6 -2.5 7t-5.5 -5q-106 -137 -297 -137
q-147 0 -233 90.5t-66 247.5l84 684q0 10 7.5 17t18.5 7h56q23 0 20 -24l-80 -656q-15 -123 46 -196.5t179 -73.5q121 0 204 74t98 196z" />
    <glyph glyph-name="uacute" unicode="&#xfa;" horiz-adv-x="1062" 
d="M803 1448q14 0 17.5 -8t-5.5 -21l-153 -219q-8 -16 -29 -16h-47q-12 0 -16 8t3 20l146 220q10 16 31 16h53zM870 1008q2 11 9.5 17.5t17.5 6.5h55q23 0 23 -24l-121 -983q-1 -10 -9.5 -17.5t-17.5 -7.5h-57q-9 0 -15 7.5t-5 17.5l12 96q0 6 -2.5 7t-5.5 -5
q-106 -137 -297 -137q-147 0 -233 90.5t-66 247.5l84 684q0 10 7.5 17t18.5 7h56q23 0 20 -24l-80 -656q-15 -123 46 -196.5t179 -73.5q121 0 204 74t98 196z" />
    <glyph glyph-name="ucircumflex" unicode="&#xfb;" horiz-adv-x="1062" 
d="M664 1358q-2 3 -7 3t-6 -3l-151 -176q-12 -15 -31 -15h-43q-15 0 -18 9.5t8 21.5l184 213q14 14 33 14h61q19 0 27 -14l135 -213q7 -12 1.5 -21.5t-19.5 -9.5h-43q-15 0 -27 15zM870 1008q2 11 9.5 17.5t17.5 6.5h55q23 0 23 -24l-121 -983q-1 -10 -9.5 -17.5t-17.5 -7.5
h-57q-9 0 -15 7.5t-5 17.5l12 96q0 6 -2.5 7t-5.5 -5q-106 -137 -297 -137q-147 0 -233 90.5t-66 247.5l84 684q0 10 7.5 17t18.5 7h56q23 0 20 -24l-80 -656q-15 -123 46 -196.5t179 -73.5q121 0 204 74t98 196z" />
    <glyph glyph-name="udieresis" unicode="&#xfc;" horiz-adv-x="1062" 
d="M483 1243q-37 0 -57.5 23.5t-15.5 60.5q5 34 31 58t61 24q36 0 56 -24t15 -58q-5 -37 -30 -60.5t-60 -23.5zM807 1243q-38 0 -59.5 23.5t-16.5 60.5q5 34 31.5 58t64.5 24q33 0 53 -24t15 -58q-3 -36 -28.5 -60t-59.5 -24zM870 1008q2 11 9.5 17.5t17.5 6.5h55
q23 0 23 -24l-121 -983q-1 -10 -9.5 -17.5t-17.5 -7.5h-57q-9 0 -15 7.5t-5 17.5l12 96q0 6 -2.5 7t-5.5 -5q-106 -137 -297 -137q-147 0 -233 90.5t-66 247.5l84 684q0 10 7.5 17t18.5 7h56q23 0 20 -24l-80 -656q-15 -123 46 -196.5t179 -73.5q121 0 204 74t98 196z" />
    <glyph glyph-name="yacute" unicode="&#xfd;" horiz-adv-x="892" 
d="M504 1188q-13 0 -16.5 8.5t4.5 20.5l143 219q13 16 33 16h53q14 0 17.5 -8t-5.5 -21l-153 -219q-11 -16 -31 -16h-45zM27 -410q-6 0 -9 7.5t-2 17.5l7 45q4 25 16 25h14q47 1 79 9.5t59 26t53 56.5t50 86.5t60 130.5q5 9 2 12l-215 998q-3 13 4.5 20.5t18.5 7.5h59
q22 0 25 -20l176 -854q2 -4 6 -4t6 4l377 854q10 20 29 20h61q13 0 17.5 -7t-0.5 -21l-510 -1108q-61 -133 -109.5 -196t-105.5 -86.5t-154 -23.5h-14z" />
    <glyph glyph-name="thorn" unicode="&#xfe;" horiz-adv-x="1060" 
d="M963 772q11 -77 -13 -258q-19 -169 -53 -258q-48 -126 -150 -199t-239 -73q-173 0 -246 131q-2 4 -5 3.5t-5 -5.5l-62 -498q-4 -25 -26 -25h-58q-10 0 -16 7t-4 18l219 1794q1 10 9.5 17.5t19.5 7.5h57q9 0 15.5 -7.5t5.5 -17.5l-60 -489q-1 -3 0 -4.5t3.5 -1t4.5 3.5
q109 131 279 131q137 0 223 -75t101 -202zM791 272q19 43 30.5 91t24.5 153q20 170 0 250q-14 82 -75 134t-155 52q-93 0 -162 -52.5t-100 -135.5q-23 -52 -35 -111l-34 -276q-3 -63 6 -105q13 -86 68.5 -139t148.5 -53q97 0 173.5 52.5t109.5 139.5z" />
    <glyph glyph-name="ydieresis" unicode="&#xff;" horiz-adv-x="892" 
d="M399 1247q-36 0 -56.5 24t-16.5 60q5 34 32 58t62 24t56 -24t16 -58q-4 -37 -31 -60.5t-62 -23.5zM723 1247q-37 0 -58 23.5t-18 60.5q5 34 32.5 58t63.5 24q34 0 54.5 -24t15.5 -58q-4 -36 -30 -60t-60 -24zM27 -410q-6 0 -9 7.5t-2 17.5l7 45q4 25 16 25h14
q47 1 79 9.5t59 26t53 56.5t50 86.5t60 130.5q5 9 2 12l-215 998q-3 13 4.5 20.5t18.5 7.5h59q22 0 25 -20l176 -854q2 -4 6 -4t6 4l377 854q10 20 29 20h61q13 0 17.5 -7t-0.5 -21l-510 -1108q-61 -133 -109.5 -196t-105.5 -86.5t-154 -23.5h-14z" />
    <glyph glyph-name="Amacron" unicode="&#x100;" horiz-adv-x="1171" 
d="M991 1708q9 0 15.5 -7.5t5.5 -17.5l-4 -32q-1 -10 -9.5 -17.5t-17.5 -7.5h-473q-10 0 -16.5 7t-4.5 18l5 32q0 10 7.5 17.5t18.5 7.5h473zM975 0q-20 0 -23 20l-53 269q0 6 -6 6h-621q-6 0 -8 -6l-117 -269q-10 -20 -28 -20h-64q-12 0 -17 8t1 21l612 1384q7 21 27 21h86
q18 0 22 -21l275 -1384q3 -13 -4.5 -21t-20.5 -8h-61zM309 395q-2 -3 0 -6.5t6 -3.5h557q4 0 7.5 3.5t1.5 6.5l-172 897q0 4 -5 4t-8 -4z" />
    <glyph glyph-name="amacron" unicode="&#x101;" 
d="M891 1307q10 0 16 -7t4 -18l-4 -33q0 -10 -7.5 -17t-18.5 -7h-471q-11 0 -17.5 7t-5.5 17l4 33q1 10 9.5 17.5t17.5 7.5h473zM872 1008q2 11 9.5 17.5t17.5 6.5h57q23 0 23 -24l-121 -983q-1 -10 -9.5 -17.5t-19.5 -7.5h-57q-9 0 -15 7.5t-5 17.5l12 92q0 5 -3.5 6.5
t-6.5 -2.5q-52 -65 -125 -101t-158 -36q-136 0 -219.5 73.5t-101.5 198.5q-12 81 8 258q24 183 53 258q47 127 150.5 202t240.5 75q85 0 148.5 -36t99.5 -102q3 -4 6.5 -2.5t5.5 6.5zM758 272q19 38 30.5 87t24.5 155q13 110 13.5 163.5t-9.5 86.5q-9 83 -66 135.5
t-149 52.5q-94 0 -168.5 -52t-107.5 -134q-22 -44 -36 -93.5t-26 -156.5q-20 -164 -4 -244q11 -87 74 -139.5t160 -52.5q94 0 163 53t101 139z" />
    <glyph glyph-name="Abreve" unicode="&#x102;" horiz-adv-x="1171" 
d="M735 1548q-81 0 -133.5 53.5t-50.5 133.5q0 24 24 24h23q23 0 23 -24q2 -53 36 -87t86 -34t95.5 34t58.5 87q6 24 29 24h20q27 0 21 -24q-19 -79 -85 -133t-147 -54zM975 0q-20 0 -23 20l-53 269q0 6 -6 6h-621q-6 0 -8 -6l-117 -269q-10 -20 -28 -20h-64q-12 0 -17 8
t1 21l612 1384q7 21 27 21h86q18 0 22 -21l275 -1384q3 -13 -4.5 -21t-20.5 -8h-61zM309 395q-2 -3 0 -6.5t6 -3.5h557q4 0 7.5 3.5t1.5 6.5l-172 897q0 4 -5 4t-8 -4z" />
    <glyph glyph-name="abreve" unicode="&#x103;" 
d="M635 1147q-79 0 -131.5 53t-50.5 133q0 25 24 25h21q25 0 22 -25q3 -53 37.5 -87t85.5 -34q53 0 97 34.5t57 86.5q6 25 28 25h23q23 0 20 -25q-21 -79 -86.5 -132.5t-146.5 -53.5zM872 1008q2 11 9.5 17.5t17.5 6.5h57q23 0 23 -24l-121 -983q-1 -10 -9.5 -17.5
t-19.5 -7.5h-57q-9 0 -15 7.5t-5 17.5l12 92q0 5 -3.5 6.5t-6.5 -2.5q-52 -65 -125 -101t-158 -36q-136 0 -219.5 73.5t-101.5 198.5q-12 81 8 258q24 183 53 258q47 127 150.5 202t240.5 75q85 0 148.5 -36t99.5 -102q3 -4 6.5 -2.5t5.5 6.5zM758 272q19 38 30.5 87
t24.5 155q13 110 13.5 163.5t-9.5 86.5q-9 83 -66 135.5t-149 52.5q-94 0 -168.5 -52t-107.5 -134q-22 -44 -36 -93.5t-26 -156.5q-20 -164 -4 -244q11 -87 74 -139.5t160 -52.5q94 0 163 53t101 139z" />
    <glyph glyph-name="Aogonek" unicode="&#x104;" horiz-adv-x="1230" 
d="M1032 -301q22 5 25 -18l2 -21q3 -24 -21 -31q-49 -7 -96 -5.5t-84 32t-43 88.5q-13 132 148 250q7 5 0 8q-9 9 -11 18l-53 269q0 6 -6 6h-621q-6 0 -8 -6l-117 -269q-10 -20 -28 -20h-64q-12 0 -17 8t1 21l612 1384q7 21 27 21h86q18 0 22 -21l275 -1384q6 -29 0 -29
t-10 -4q-70 -48 -113.5 -106.5t-40.5 -116.5q4 -51 41.5 -68t93.5 -6zM309 395q-2 -3 0 -6.5t6 -3.5h557q4 0 7.5 3.5t1.5 6.5l-172 897q0 4 -5 4t-8 -4z" />
    <glyph glyph-name="aogonek" unicode="&#x105;" horiz-adv-x="1191" 
d="M803 -301q23 6 26 -18v-21q7 -24 -20 -31q-34 -9 -71.5 -7t-69.5 11.5t-55 38t-27 72.5q-10 130 141 246q15 10 21 10q2 4 2 8l14 109q0 5 -3.5 6.5t-6.5 -2.5q-52 -65 -125 -101t-158 -36q-136 0 -219.5 73.5t-101.5 198.5q-12 81 8 258q24 183 53 258q47 127 150.5 202
t240.5 75q85 0 148.5 -36t99.5 -102q3 -4 6.5 -2.5t5.5 6.5l10 93q2 11 9.5 17.5t17.5 6.5h57q23 0 23 -24l-121 -983q-4 -25 -18 -25h-9q-6 0 -10 -4q-70 -49 -112.5 -107t-38.5 -116q3 -51 40 -68t93 -6zM758 272q19 38 30.5 87t24.5 155q13 110 13.5 163.5t-9.5 86.5
q-9 83 -66 135.5t-149 52.5q-94 0 -168.5 -52t-107.5 -134q-22 -44 -36 -93.5t-26 -156.5q-20 -164 -4 -244q11 -87 74 -139.5t160 -52.5q94 0 163 53t101 139z" />
    <glyph glyph-name="Cacute" unicode="&#x106;" horiz-adv-x="1206" 
d="M719 1602q-13 0 -16.5 8t4.5 20l143 219q14 17 33 17h53q14 0 17.5 -8t-5.5 -21l-153 -219q-11 -16 -31 -16h-45zM569 -18q-205 0 -314.5 122t-84.5 322l72 584q25 198 164 319t344 121q203 0 313.5 -119.5t85.5 -314.5q0 -10 -8 -17.5t-19 -7.5l-57 -2q-23 0 -23 12
l2 13q19 153 -65 246.5t-240 93.5q-158 0 -265.5 -93t-127.5 -247l-72 -594q-19 -154 65.5 -248t242.5 -94q157 0 263.5 94t125.5 248q3 22 26 22l58 -2q11 0 17 -3t5 -7v-10q-25 -196 -165 -317t-343 -121z" />
    <glyph glyph-name="cacute" unicode="&#x107;" horiz-adv-x="1026" 
d="M592 1200q-12 0 -15.5 8.5t3.5 20.5l145 219q10 16 31 16h53q14 0 17.5 -7t-5.5 -21l-153 -219q-11 -17 -29 -17h-47zM496 -16q-142 0 -231 75.5t-107 202.5q-15 100 6 256q18 154 55 254q48 125 157 201t249 76q141 0 234.5 -74.5t107.5 -183.5q6 -27 6 -54
q0 -22 -25 -26l-57 -9q-22 -3 -25 23q0 17 -2 25q-8 86 -76 144t-174 58q-110 0 -189.5 -59.5t-111.5 -157.5q-27 -73 -45 -219q-18 -152 -8 -217q6 -100 71.5 -159.5t174.5 -59.5q108 0 192 58.5t109 146.5l4 8q6 22 31 18l51 -6q24 -3 18 -29q-4 -16 -12 -32
q-40 -115 -151 -187.5t-252 -72.5z" />
    <glyph glyph-name="Cdotaccent" unicode="&#x10a;" horiz-adv-x="1206" 
d="M772 1628q-35 0 -55.5 22.5t-16.5 57.5q5 34 30.5 56t60.5 22q33 0 51.5 -22t15.5 -56q-4 -35 -28.5 -57.5t-57.5 -22.5zM569 -18q-205 0 -314.5 122t-84.5 322l72 584q25 198 164 319t344 121q203 0 313.5 -119.5t85.5 -314.5q0 -10 -8 -17.5t-19 -7.5l-57 -2
q-23 0 -23 12l2 13q19 153 -65 246.5t-240 93.5q-158 0 -265.5 -93t-127.5 -247l-72 -594q-19 -154 65.5 -248t242.5 -94q157 0 263.5 94t125.5 248q3 22 26 22l58 -2q11 0 17 -3t5 -7v-10q-25 -196 -165 -317t-343 -121z" />
    <glyph glyph-name="cdotaccent" unicode="&#x10b;" horiz-adv-x="1026" 
d="M645 1227q-35 0 -55.5 22.5t-16.5 57.5q5 34 30.5 55.5t62.5 21.5q32 0 50 -21.5t15 -55.5q-4 -35 -28.5 -57.5t-57.5 -22.5zM496 -16q-142 0 -231 75.5t-107 202.5q-15 100 6 256q18 154 55 254q48 125 157 201t249 76q141 0 234.5 -74.5t107.5 -183.5q6 -27 6 -54
q0 -22 -25 -26l-57 -9q-22 -3 -25 23q0 17 -2 25q-8 86 -76 144t-174 58q-110 0 -189.5 -59.5t-111.5 -157.5q-27 -73 -45 -219q-18 -152 -8 -217q6 -100 71.5 -159.5t174.5 -59.5q108 0 192 58.5t109 146.5l4 8q6 22 31 18l51 -6q24 -3 18 -29q-4 -16 -12 -32
q-40 -115 -151 -187.5t-252 -72.5z" />
    <glyph glyph-name="Ccaron" unicode="&#x10c;" horiz-adv-x="1206" 
d="M731 1579q-18 0 -26 14l-130 213q-8 12 -2 21.5t21 9.5h39q18 0 29 -14l106 -176q2 -3 6 -3t6 3l152 176q11 14 29 14h38q15 0 18.5 -9.5t-7.5 -21.5l-183 -213q-14 -14 -28 -14h-68zM569 -18q-205 0 -314.5 122t-84.5 322l72 584q25 198 164 319t344 121
q203 0 313.5 -119.5t85.5 -314.5q0 -10 -8 -17.5t-19 -7.5l-57 -2q-23 0 -23 12l2 13q19 153 -65 246.5t-240 93.5q-158 0 -265.5 -93t-127.5 -247l-72 -594q-19 -154 65.5 -248t242.5 -94q157 0 263.5 94t125.5 248q3 22 26 22l58 -2q11 0 17 -3t5 -7v-10
q-25 -196 -165 -317t-343 -121z" />
    <glyph glyph-name="ccaron" unicode="&#x10d;" horiz-adv-x="1026" 
d="M604 1178q-18 0 -26 14l-129 213q-8 12 -2.5 21.5t20.5 9.5h39q20 0 29 -15l106 -176q1 -3 6 -3t6 3l152 176q12 15 29 15h40q14 0 16.5 -9.5t-7.5 -21.5l-183 -213q-11 -14 -28 -14h-68zM496 -16q-142 0 -231 75.5t-107 202.5q-15 100 6 256q18 154 55 254
q48 125 157 201t249 76q141 0 234.5 -74.5t107.5 -183.5q6 -27 6 -54q0 -22 -25 -26l-57 -9q-22 -3 -25 23q0 17 -2 25q-8 86 -76 144t-174 58q-110 0 -189.5 -59.5t-111.5 -157.5q-27 -73 -45 -219q-18 -152 -8 -217q6 -100 71.5 -159.5t174.5 -59.5q108 0 192 58.5
t109 146.5l4 8q6 22 31 18l51 -6q24 -3 18 -29q-4 -16 -12 -32q-40 -115 -151 -187.5t-252 -72.5z" />
    <glyph glyph-name="Dcaron" unicode="&#x10e;" horiz-adv-x="1226" 
d="M737 1556q-14 0 -26 15l-129 213q-6 12 -1.5 21.5t19.5 9.5h39q20 0 29 -15l108 -176q0 -3 4 -3t6 3l152 176q15 15 31 15h39q15 0 18 -9.5t-8 -21.5l-184 -213q-12 -15 -29 -15h-68zM186 0q-10 0 -16 7t-4 18l170 1384q4 25 26 25h457q191 0 290 -103.5t77 -281.5
l-82 -664q-22 -178 -146 -281.5t-315 -103.5h-457zM281 104q0 -8 8 -8h373q138 0 228 80.5t109 220.5l80 639q17 140 -54 220.5t-212 80.5h-373q-8 0 -8 -8z" />
    <glyph glyph-name="dcaron" unicode="&#x10f;" horiz-adv-x="1228" 
d="M1257 1432q10 16 31 16h53q14 0 18 -8t-5 -21l-154 -219q-11 -16 -31 -16h-45q-13 0 -16.5 8t4.5 20zM852 909q3 -4 6.5 -2.5t3.5 6.5l62 496q4 25 26 25h58q22 0 22 -25l-170 -1384q-1 -10 -9.5 -17.5t-19.5 -7.5h-57q-9 0 -15 7.5t-5 17.5l12 96q0 14 -10 4
q-107 -141 -285 -141q-136 0 -219.5 73.5t-101.5 198.5q-12 81 8 258q24 183 53 258q47 127 150.5 202t240.5 75q175 0 250 -140zM758 272q19 38 30.5 87t24.5 155q13 110 13.5 163.5t-9.5 86.5q-9 83 -66 135.5t-149 52.5q-94 0 -168.5 -52t-107.5 -134q-22 -44 -36 -93.5
t-26 -156.5q-20 -164 -4 -244q11 -87 74 -139.5t160 -52.5q94 0 163 53t101 139z" />
    <glyph glyph-name="Dcroat" unicode="&#x110;" horiz-adv-x="1363" 
d="M956 1434q191 0 290 -103.5t77 -281.5l-82 -664q-22 -178 -146 -281.5t-315 -103.5h-456q-10 0 -16.5 7t-4.5 18l82 673q1 3 -1 6t-5 3h-105q-22 0 -22 24l4 33q1 10 9.5 17t17.5 7h106q8 0 8 9l76 612q4 25 27 25h456zM1137 397l80 639q17 139 -55 220t-212 81h-372
q-9 0 -9 -8l-65 -532q-1 -3 1 -6t5 -3h250q23 0 20 -24l-4 -33q0 -10 -7.5 -17t-18.5 -7h-250q-8 0 -8 -9l-74 -594q0 -8 8 -8h373q138 0 228.5 80.5t109.5 220.5z" />
    <glyph glyph-name="dcroat" unicode="&#x111;" horiz-adv-x="1191" 
d="M1147 1257q22 0 22 -24l-4 -29q-3 -24 -26 -24h-129q-6 0 -11 -9l-139 -1146q-1 -10 -9.5 -17.5t-19.5 -7.5h-57q-9 0 -15 7.5t-5 17.5l12 96q0 14 -10 4q-107 -141 -285 -141q-136 0 -219.5 73.5t-101.5 198.5q-12 81 8 258q24 183 53 258q47 127 150.5 202t240.5 75
q175 0 250 -140q3 -4 6.5 -2.5t3.5 6.5l33 258q0 9 -6 9h-316q-23 0 -20 24l4 29q2 11 9.5 17.5t17.5 6.5h313q5 0 10 9l17 143q4 25 26 25h58q22 0 22 -25l-18 -143q0 -9 6 -9h129zM758 272q19 38 30.5 87t24.5 155q13 110 13.5 163.5t-9.5 86.5q-9 83 -66 135.5t-149 52.5
q-94 0 -168.5 -52t-107.5 -134q-22 -44 -36 -93.5t-26 -156.5q-20 -164 -4 -244q11 -87 74 -139.5t160 -52.5q94 0 163 53t101 139z" />
    <glyph glyph-name="Emacron" unicode="&#x112;" horiz-adv-x="1214" 
d="M1044 1731q10 0 16.5 -7t4.5 -18l-4 -33q0 -10 -8 -17t-19 -7h-473q-9 0 -15 7t-5 17l4 33q1 10 9 17.5t17 7.5h473zM1217 1362q-1 -10 -9.5 -17.5t-17.5 -7.5h-750q-8 0 -8 -8l-70 -553q0 -8 9 -8h530q10 0 16.5 -7t4.5 -18l-7 -47q-3 -24 -26 -24h-531q-8 0 -8 -8
l-69 -560q0 -8 8 -8h747q11 0 16.5 -7t4.5 -17l-4 -47q-1 -10 -9.5 -17.5t-17.5 -7.5h-840q-10 0 -16 7t-4 18l170 1384q4 25 26 25h838q10 0 16.5 -7t6.5 -18z" />
    <glyph glyph-name="emacron" unicode="&#x113;" horiz-adv-x="1054" 
d="M885 1323q22 0 22 -25l-4 -32q-1 -10 -9.5 -17.5t-19.5 -7.5h-471q-22 0 -22 25l4 32q1 10 9.5 17.5t19.5 7.5h471zM510 78q97 1 173 46.5t118 121.5q15 21 33 12l34 -14q23 -12 11 -33q-56 -104 -157 -165.5t-230 -61.5q-138 0 -224 69.5t-108 190.5q-17 89 6 274
q7 69 11.5 102.5t13 73.5t20.5 70q48 130 155.5 207.5t249.5 77.5q159 0 246.5 -86t93.5 -236q7 -62 -12 -219q-3 -27 -26 -27h-646q-7 0 -10 -8q-15 -126 -10 -176q8 -99 76.5 -159t181.5 -60zM309 739q-16 -42 -33 -161q-3 -9 7 -9h555q8 0 8 9q12 97 8 155
q-8 98 -74.5 158.5t-173.5 60.5q-108 0 -186.5 -58.5t-110.5 -154.5z" />
    <glyph glyph-name="Edotaccent" unicode="&#x116;" horiz-adv-x="1214" 
d="M797 1634q-35 0 -55.5 22.5t-16.5 57.5q5 34 30 56t60 22q33 0 52 -22t16 -56q-4 -35 -28.5 -57.5t-57.5 -22.5zM1217 1362q-1 -10 -9.5 -17.5t-17.5 -7.5h-750q-8 0 -8 -8l-70 -553q0 -8 9 -8h530q10 0 16.5 -7t4.5 -18l-7 -47q-3 -24 -26 -24h-531q-8 0 -8 -8l-69 -560
q0 -8 8 -8h747q11 0 16.5 -7t4.5 -17l-4 -47q-1 -10 -9.5 -17.5t-17.5 -7.5h-840q-10 0 -16 7t-4 18l170 1384q4 25 26 25h838q10 0 16.5 -7t6.5 -18z" />
    <glyph glyph-name="edotaccent" unicode="&#x117;" horiz-adv-x="1054" 
d="M637 1227q-35 0 -55.5 22.5t-16.5 57.5q5 34 30 55.5t62 21.5q33 0 51.5 -22t14.5 -55q-5 -35 -28.5 -57.5t-57.5 -22.5zM510 78q97 1 173 46.5t118 121.5q15 21 33 12l34 -14q23 -12 11 -33q-56 -104 -157 -165.5t-230 -61.5q-138 0 -224 69.5t-108 190.5q-17 89 6 274
q7 69 11.5 102.5t13 73.5t20.5 70q48 130 155.5 207.5t249.5 77.5q159 0 246.5 -86t93.5 -236q7 -62 -12 -219q-3 -27 -26 -27h-646q-7 0 -10 -8q-15 -126 -10 -176q8 -99 76.5 -159t181.5 -60zM309 739q-16 -42 -33 -161q-3 -9 7 -9h555q8 0 8 9q12 97 8 155
q-8 98 -74.5 158.5t-173.5 60.5q-108 0 -186.5 -58.5t-110.5 -154.5z" />
    <glyph glyph-name="Eogonek" unicode="&#x118;" horiz-adv-x="1214" 
d="M1217 1362q-1 -10 -9.5 -17.5t-17.5 -7.5h-750q-8 0 -8 -8l-70 -553q0 -8 9 -8h530q10 0 16.5 -7t4.5 -18l-7 -47q-3 -24 -26 -24h-531q-8 0 -8 -8l-69 -560q0 -8 8 -8h747q11 0 16.5 -7t4.5 -17l-4 -47q-1 -10 -9.5 -17.5t-17.5 -7.5h-375q-6 0 -10 -4
q-138 -107 -133 -209q4 -51 41.5 -68t93.5 -6q22 5 25 -18l2 -21q3 -23 -21 -30q-34 -9 -72 -7t-69.5 11t-54.5 37.5t-27 72.5q-13 121 123 232q10 10 -2 10h-361q-10 0 -16 7t-4 18l170 1384q4 25 26 25h838q10 0 16.5 -7t6.5 -18z" />
    <glyph glyph-name="eogonek" unicode="&#x119;" horiz-adv-x="1054" 
d="M510 78q97 1 173 46.5t118 121.5q15 21 33 12l34 -14q23 -12 11 -33q-52 -95 -140.5 -155t-201.5 -70q-7 0 -11 -4q-63 -48 -100.5 -102.5t-34.5 -108.5q4 -51 41.5 -68t91.5 -6q23 6 27 -19l2 -20q3 -24 -21 -31q-49 -7 -96.5 -5.5t-85 32.5t-43.5 88q-13 119 129 235
q10 7 -2 11q-113 13 -183 80.5t-91 175.5q-17 89 6 274q7 69 11.5 102.5t13 73.5t20.5 70q48 130 155.5 207.5t249.5 77.5q159 0 246.5 -86t93.5 -236q7 -62 -12 -219q-3 -27 -26 -27h-646q-7 0 -10 -8q-15 -126 -10 -176q8 -99 76.5 -159t181.5 -60zM309 739
q-16 -42 -33 -161q-3 -9 7 -9h555q8 0 8 9q12 97 8 155q-8 98 -74.5 158.5t-173.5 60.5q-108 0 -186.5 -58.5t-110.5 -154.5z" />
    <glyph glyph-name="Ecaron" unicode="&#x11a;" horiz-adv-x="1214" 
d="M852 1599q-11 -14 -29 -14h-67q-19 0 -27 14l-129 213q-8 12 -2.5 21.5t20.5 9.5h39q18 0 29 -14l107 -176q1 -3 6 -3t6 3l151 176q11 14 29 14h39q15 0 18 -9.5t-8 -21.5zM1217 1362q-1 -10 -9.5 -17.5t-17.5 -7.5h-750q-8 0 -8 -8l-70 -553q0 -8 9 -8h530q10 0 16.5 -7
t4.5 -18l-7 -47q-3 -24 -26 -24h-531q-8 0 -8 -8l-69 -560q0 -8 8 -8h747q11 0 16.5 -7t4.5 -17l-4 -47q-1 -10 -9.5 -17.5t-17.5 -7.5h-840q-10 0 -16 7t-4 18l170 1384q4 25 26 25h838q10 0 16.5 -7t6.5 -18z" />
    <glyph glyph-name="ecaron" unicode="&#x11b;" horiz-adv-x="1054" 
d="M690 1176q-12 -15 -28 -15h-68q-18 0 -27 15l-129 213q-7 12 -1.5 21t20.5 9h39q20 0 28 -14l107 -176q1 -3 6 -3t6 3l152 176q11 14 28 14h41q13 0 16 -9t-6 -21zM510 78q97 1 173 46.5t118 121.5q15 21 33 12l34 -14q23 -12 11 -33q-56 -104 -157 -165.5t-230 -61.5
q-138 0 -224 69.5t-108 190.5q-17 89 6 274q7 69 11.5 102.5t13 73.5t20.5 70q48 130 155.5 207.5t249.5 77.5q159 0 246.5 -86t93.5 -236q7 -62 -12 -219q-3 -27 -26 -27h-646q-7 0 -10 -8q-15 -126 -10 -176q8 -99 76.5 -159t181.5 -60zM309 739q-16 -42 -33 -161
q-3 -9 7 -9h555q8 0 8 9q12 97 8 155q-8 98 -74.5 158.5t-173.5 60.5q-108 0 -186.5 -58.5t-110.5 -154.5z" />
    <glyph glyph-name="Gbreve" unicode="&#x11e;" horiz-adv-x="1202" 
d="M760 1565q-79 0 -131.5 53t-50.5 133q0 25 24 25h21q22 0 22 -25q3 -53 37.5 -87t85.5 -34q53 0 97 34.5t57 86.5q6 25 28 25h23q23 0 20 -25q-21 -79 -86.5 -132.5t-146.5 -53.5zM569 -16q-204 0 -314 120.5t-85 317.5l72 590q25 198 164 318t344 120q202 0 312 -119
t87 -307l-4 -25q0 -10 -8 -17t-19 -7h-57q-11 0 -16.5 7t-4.5 17l2 23q19 148 -65 240t-238 92q-158 0 -265 -93t-126 -245l-74 -598q-19 -152 66.5 -245t243.5 -93q156 0 261 88.5t122 237.5l26 206q0 9 -8 9h-305q-11 0 -16.5 7t-4.5 17l7 47q4 25 26 25h395q10 0 16.5 -7
t4.5 -18l-33 -262q-24 -207 -162.5 -326.5t-343.5 -119.5z" />
    <glyph glyph-name="gbreve" unicode="&#x11f;" horiz-adv-x="1052" 
d="M643 1165q-79 0 -131.5 53.5t-50.5 133.5q0 24 24 24h21q24 0 24 -24q2 -52 36 -86.5t85 -34.5q53 0 97 34.5t57 86.5q6 24 29 24h22q24 0 21 -24q-21 -79 -87 -133t-147 -54zM877 1008q3 24 26 24h58q23 0 20 -24l-121 -985q-28 -230 -174.5 -335t-390.5 -96
q-11 2 -16.5 9.5t-4.5 17.5l9 51q4 26 28 23q209 -6 316 75t129 257l12 102q1 6 -2 7.5t-6 -3.5q-111 -141 -291 -141q-129 0 -217 72.5t-105 199.5q-10 80 9 252q24 183 57 264q47 121 149.5 196t233.5 75q181 0 258 -140q3 -4 6.5 -2.5t3.5 6.5zM780 301q16 53 37 215
q19 168 17 219q-5 93 -66 155t-164 62q-104 0 -182.5 -61.5t-114.5 -155.5q-28 -72 -45 -217q-17 -150 -8 -217q9 -94 74.5 -155.5t169.5 -61.5q105 0 179.5 62t102.5 155z" />
    <glyph glyph-name="Gdotaccent" unicode="&#x120;" horiz-adv-x="1202" 
d="M768 1628q-35 0 -55.5 22.5t-16.5 57.5q5 34 30 56t60 22q33 0 52 -22t16 -56q-4 -35 -28.5 -57.5t-57.5 -22.5zM569 -16q-204 0 -314 120.5t-85 317.5l72 590q25 198 164 318t344 120q202 0 312 -119t87 -307l-4 -25q0 -10 -8 -17t-19 -7h-57q-11 0 -16.5 7t-4.5 17
l2 23q19 148 -65 240t-238 92q-158 0 -265 -93t-126 -245l-74 -598q-19 -152 66.5 -245t243.5 -93q156 0 261 88.5t122 237.5l26 206q0 9 -8 9h-305q-11 0 -16.5 7t-4.5 17l7 47q4 25 26 25h395q10 0 16.5 -7t4.5 -18l-33 -262q-24 -207 -162.5 -326.5t-343.5 -119.5z" />
    <glyph glyph-name="gdotaccent" unicode="&#x121;" horiz-adv-x="1052" 
d="M651 1229q-35 0 -55 22.5t-16 57.5q5 34 30 55.5t62 21.5q32 0 50 -21.5t15 -55.5q-4 -35 -28.5 -57.5t-57.5 -22.5zM877 1008q3 24 26 24h58q23 0 20 -24l-121 -985q-28 -230 -174.5 -335t-390.5 -96q-11 2 -16.5 9.5t-4.5 17.5l9 51q4 26 28 23q209 -6 316 75t129 257
l12 102q1 6 -2 7.5t-6 -3.5q-111 -141 -291 -141q-129 0 -217 72.5t-105 199.5q-10 80 9 252q24 183 57 264q47 121 149.5 196t233.5 75q181 0 258 -140q3 -4 6.5 -2.5t3.5 6.5zM780 301q16 53 37 215q19 168 17 219q-5 93 -66 155t-164 62q-104 0 -182.5 -61.5
t-114.5 -155.5q-28 -72 -45 -217q-17 -150 -8 -217q9 -94 74.5 -155.5t169.5 -61.5q105 0 179.5 62t102.5 155z" />
    <glyph glyph-name="uni0122" unicode="&#x122;" horiz-adv-x="1202" 
d="M569 -16q-204 0 -314 120.5t-85 317.5l72 590q25 198 164 318t344 120q202 0 312 -119t87 -307l-4 -25q0 -10 -8 -17t-19 -7h-57q-11 0 -16.5 7t-4.5 17l2 23q19 148 -65 240t-238 92q-158 0 -265 -93t-126 -245l-74 -598q-19 -152 66.5 -245t243.5 -93q156 0 261 88.5
t122 237.5l26 206q0 9 -8 9h-305q-11 0 -16.5 7t-4.5 17l7 47q4 25 26 25h395q10 0 16.5 -7t4.5 -18l-33 -262q-24 -207 -162.5 -326.5t-343.5 -119.5zM418 -401q-13 0 -16.5 8t4.5 20l143 219q14 17 33 17h53q14 0 17.5 -7.5t-5.5 -21.5l-153 -219q-11 -16 -31 -16h-45z
" />
    <glyph glyph-name="uni0123" unicode="&#x123;" horiz-adv-x="1052" 
d="M778 1436q13 0 17 -8.5t-4 -20.5l-144 -219q-14 -17 -33 -17h-53q-14 0 -17.5 7.5t5.5 21.5l153 219q11 17 31 17h45zM877 1008q3 24 26 24h58q23 0 20 -24l-121 -985q-28 -230 -174.5 -335t-390.5 -96q-11 2 -16.5 9.5t-4.5 17.5l9 51q4 26 28 23q209 -6 316 75t129 257
l12 102q1 6 -2 7.5t-6 -3.5q-111 -141 -291 -141q-129 0 -217 72.5t-105 199.5q-10 80 9 252q24 183 57 264q47 121 149.5 196t233.5 75q181 0 258 -140q3 -4 6.5 -2.5t3.5 6.5zM780 301q16 53 37 215q19 168 17 219q-5 93 -66 155t-164 62q-104 0 -182.5 -61.5
t-114.5 -155.5q-28 -72 -45 -217q-17 -150 -8 -217q9 -94 74.5 -155.5t169.5 -61.5q105 0 179.5 62t102.5 155z" />
    <glyph glyph-name="Hbar" unicode="&#x126;" horiz-adv-x="1312" 
d="M1311 1124q9 0 15 -7t5 -17l-4 -35q-1 -10 -9.5 -17.5t-17.5 -7.5h-92q-8 0 -8 -8l-125 -1007q-4 -25 -26 -25h-58q-10 0 -16 7t-4 18l78 639q0 8 -7 8h-684q-8 0 -8 -8l-80 -639q0 -10 -7.5 -17.5t-18.5 -7.5h-58q-10 0 -16 7t-4 18l123 1007q1 3 -1 5.5t-5 2.5h-90
q-9 0 -15.5 7.5t-5.5 17.5l4 35q1 10 9.5 17t17.5 7h90q8 0 8 9l35 276q4 25 26 25h58q10 0 16 -7t4 -18l-32 -276q0 -9 6 -9h684q8 0 8 9l35 276q4 25 26 25h58q10 0 16 -7t4 -18l-33 -276q-1 -3 1.5 -6t5.5 -3h92zM1055 768q2 0 5 2.5t3 5.5l31 256q1 3 -1.5 5.5t-5.5 2.5
h-684q-8 0 -8 -8l-33 -256q0 -8 9 -8h684z" />
    <glyph glyph-name="hbar" unicode="&#x127;" 
d="M657 1047q152 0 234 -96.5t63 -254.5l-84 -671q0 -10 -7.5 -17.5t-18.5 -7.5h-58q-10 0 -16 7t-4 18l80 651q15 122 -47 198t-176 76q-120 0 -203 -75t-98 -195l-80 -655q-4 -25 -27 -25h-57q-10 0 -16.5 7t-6.5 18l137 1114q1 3 -1 5.5t-5 2.5h-114q-23 0 -23 24l4 29
q4 25 27 25h116q2 0 5.5 2.5t3.5 5.5l20 176q1 10 9.5 17.5t19.5 7.5h57q9 0 15.5 -7.5t5.5 -17.5l-23 -176q0 -8 8 -8h328q10 0 16 -7t4 -18l-4 -29q-3 -24 -26 -24h-328q-8 0 -8 -8l-29 -228q0 -12 8 -4q106 140 299 140z" />
    <glyph glyph-name="Imacron" unicode="&#x12a;" horiz-adv-x="512" 
d="M182 1649q-23 0 -20 24l4 33q4 25 27 25h473q10 0 16 -7t4 -18l-4 -33q-2 -11 -9.5 -17.5t-17.5 -6.5h-473zM186 0q-10 0 -16 7t-4 18l170 1384q4 25 26 25h58q10 0 16 -7t4 -18l-170 -1384q0 -10 -7.5 -17.5t-18.5 -7.5h-58z" />
    <glyph glyph-name="imacron" unicode="&#x12b;" horiz-adv-x="430" 
d="M88 1243q-11 0 -17 7.5t-5 17.5l4 32q1 10 9 17.5t17 7.5h473q10 0 16.5 -7t4.5 -18l-4 -32q0 -10 -8 -17.5t-19 -7.5h-471zM143 0q-10 0 -16 7t-4 18l121 983q0 10 7.5 17t18.5 7h58q23 0 20 -24l-121 -983q-4 -25 -26 -25h-58z" />
    <glyph glyph-name="Iogonek" unicode="&#x12e;" horiz-adv-x="671" 
d="M352 -301q20 5 27 -18v-21q4 -25 -21 -31q-34 -9 -71.5 -7t-69.5 11.5t-55 38t-27 72.5q-13 132 148 250q8 5 0 8q-9 6 -9 23l170 1384q1 10 9.5 17.5t17.5 7.5h59q9 0 15.5 -7.5t5.5 -17.5l-172 -1391l-2 -18q-4 -2 -6 -4q-160 -113 -152 -223q3 -51 40 -68t93 -6z" />
    <glyph glyph-name="iogonek" unicode="&#x12f;" horiz-adv-x="563" 
d="M422 1231q-37 0 -57 22.5t-15 57.5q3 34 29 56t61 22q34 0 52.5 -22t13.5 -56q-3 -35 -27 -57.5t-57 -22.5zM299 -301q22 5 25 -18l2 -21q4 -25 -21 -31q-49 -7 -96 -5.5t-84 32t-43 88.5q-13 133 147 250q7 5 0 8q-8 5 -8 23l121 983q2 11 9.5 17.5t17.5 6.5h57
q23 0 23 -24l-123 -990l-2 -18q-5 -2 -7 -4q-158 -112 -153 -223q4 -51 41.5 -68t93.5 -6z" />
    <glyph glyph-name="Idotaccent" unicode="&#x130;" horiz-adv-x="512" 
d="M418 1634q-37 0 -57 22.5t-15 57.5q3 34 29 56t61 22q34 0 52.5 -22t13.5 -56q-3 -35 -27 -57.5t-57 -22.5zM186 0q-10 0 -16 7t-4 18l170 1384q4 25 26 25h58q10 0 16 -7t4 -18l-170 -1384q0 -10 -7.5 -17.5t-18.5 -7.5h-58z" />
    <glyph glyph-name="dotlessi" unicode="&#x131;" horiz-adv-x="430" 
d="M143 0q-10 0 -16 7t-4 18l121 983q0 10 7.5 17t18.5 7h58q23 0 20 -24l-121 -983q-4 -25 -26 -25h-58z" />
    <glyph glyph-name="ij" unicode="&#x133;" horiz-adv-x="925" 
d="M352 1239q-38 0 -61 26t-19 64t34 63t69 25q40 0 62.5 -25t17.5 -63t-34 -64t-69 -26zM813 1237q-40 0 -61.5 25t-16.5 65q4 40 33.5 65t67.5 25q40 0 63 -24.5t19 -65.5q-5 -40 -33.5 -65t-71.5 -25zM172 0q-9 0 -15 7.5t-5 17.5l120 983q2 11 9.5 17.5t17.5 6.5h57
q23 0 23 -24l-121 -983q-1 -10 -9.5 -17.5t-17.5 -7.5h-59zM346 -428q-10 0 -16 7t-4 18l6 45q3 24 26 24q104 4 165 61t73 160l137 1121q1 10 9.5 17t17.5 7h57q23 0 23 -24l-140 -1121q-19 -156 -106 -234t-248 -81z" />
    <glyph glyph-name="uni0136" unicode="&#x136;" horiz-adv-x="1206" 
d="M186 0q-10 0 -16 7t-4 18l170 1384q4 25 26 25h58q10 0 16 -7t4 -18l-88 -719q0 -5 3.5 -6.5t6.5 2.5l760 735q10 13 31 13h64q15 0 18.5 -9.5t-8.5 -21.5l-561 -557q-2 -2 -2 -12l440 -803q6 -12 0 -21.5t-19 -9.5h-69q-21 0 -27 16l-405 740q-2 3 -6 4t-7 -2l-233 -219
q-4 -4 -4 -11l-64 -503q0 -10 -7.5 -17.5t-18.5 -7.5h-58zM451 -385q-12 0 -16 8.5t3 20.5l146 219q10 16 30 16h54q14 0 17.5 -7.5t-5.5 -21.5l-154 -219q-8 -16 -28 -16h-47z" />
    <glyph glyph-name="uni0137" unicode="&#x137;" horiz-adv-x="976" 
d="M158 0q-10 0 -16.5 7t-6.5 18l170 1384q1 10 9.5 17.5t19.5 7.5h57q9 0 15.5 -7.5t5.5 -17.5l-107 -870q-1 -4 2 -5.5t6 1.5l516 485q15 12 33 12h70q14 0 16 -9.5t-8 -21.5l-283 -272q-5 -5 -2 -10l219 -690q6 -29 -22 -29h-61q-20 0 -25 18l-193 627q-3 7 -10 2
l-272 -258q-6 -6 -6 -10l-43 -354q-4 -25 -27 -25h-57zM340 -385q-13 0 -16.5 8.5t4.5 20.5l143 219q13 16 33 16h53q14 0 17.5 -7.5t-5.5 -21.5l-153 -219q-11 -16 -31 -16h-45z" />
    <glyph glyph-name="Lacute" unicode="&#x139;" horiz-adv-x="1126" 
d="M362 1585q-13 0 -16.5 8.5t2.5 20.5l146 219q10 16 30 16h56q13 0 16.5 -7.5t-4.5 -20.5l-156 -219q-8 -17 -28 -17h-46zM186 0q-10 0 -16 7t-4 18l170 1384q4 25 26 25h58q10 0 16 -7t4 -18l-159 -1305q0 -8 8 -8h708q11 0 16.5 -7t4.5 -17l-6 -47q-4 -25 -27 -25h-799z
" />
    <glyph glyph-name="lacute" unicode="&#x13a;" horiz-adv-x="450" 
d="M334 1585q-13 0 -16.5 8.5t4.5 20.5l143 219q13 16 33 16h53q14 0 17.5 -7.5t-5.5 -20.5l-153 -219q-11 -17 -31 -17h-45zM158 0q-10 0 -16.5 7t-6.5 18l170 1384q1 10 9.5 17.5t19.5 7.5h57q9 0 15.5 -7.5t5.5 -17.5l-170 -1384q-4 -25 -27 -25h-57z" />
    <glyph glyph-name="uni013B" unicode="&#x13b;" horiz-adv-x="1126" 
d="M186 0q-10 0 -16 7t-4 18l170 1384q4 25 26 25h58q10 0 16 -7t4 -18l-159 -1305q0 -8 8 -8h708q11 0 16.5 -7t4.5 -17l-6 -47q-4 -25 -27 -25h-799zM385 -385q-12 0 -15.5 8.5t3.5 20.5l145 219q10 16 31 16h53q14 0 17.5 -7.5t-5.5 -21.5l-153 -219q-8 -16 -29 -16h-47z
" />
    <glyph glyph-name="uni013C" unicode="&#x13c;" horiz-adv-x="452" 
d="M158 0q-10 0 -16.5 7t-6.5 18l170 1384q1 10 9.5 17.5t19.5 7.5h57q9 0 15.5 -7.5t5.5 -17.5l-170 -1384q-4 -25 -27 -25h-57zM-25 -385q-13 0 -16.5 8.5t4.5 20.5l143 219q10 16 31 16h56q13 0 16.5 -7.5t-4.5 -21.5l-156 -219q-8 -16 -29 -16h-45z" />
    <glyph glyph-name="Lcaron" unicode="&#x13d;" horiz-adv-x="1126" 
d="M371 1546q-15 0 -27 15l-129 213q-6 12 -1.5 21t19.5 9h39q21 0 29 -14l109 -176q0 -3 4 -3t6 3l151 176q11 14 29 14h41q15 0 18 -9t-8 -21l-184 -213q-12 -15 -29 -15h-67zM186 0q-10 0 -16 7t-4 18l170 1384q4 25 26 25h58q10 0 16 -7t4 -18l-159 -1305q0 -8 8 -8h708
q11 0 16.5 -7t4.5 -17l-6 -47q-4 -25 -27 -25h-799z" />
    <glyph glyph-name="lcaron" unicode="&#x13e;" horiz-adv-x="450" 
d="M342 1546q-16 0 -25 15l-129 213q-7 12 -2 21t19 9h41q17 0 28 -14l107 -176q1 -3 6 -3t6 3l150 176q14 14 30 14h39q15 0 18.5 -9t-7.5 -21l-183 -213q-15 -15 -30 -15h-68zM158 0q-10 0 -16.5 7t-6.5 18l170 1384q1 10 9.5 17.5t19.5 7.5h57q9 0 15.5 -7.5t5.5 -17.5
l-170 -1384q-4 -25 -27 -25h-57z" />
    <glyph glyph-name="Lslash" unicode="&#x141;" horiz-adv-x="1126" 
d="M281 104q0 -8 8 -8h708q11 0 16.5 -7t4.5 -17l-6 -47q-4 -25 -27 -25h-799q-10 0 -16 7t-4 18l61 503q1 4 -2 5.5t-6 -1.5l-231 -157q-19 -16 -33 4l-21 31q-11 17 9 34l295 203q6 4 6 10l92 752q4 25 26 25h58q10 0 16 -7t4 -18l-80 -666q-1 -4 2.5 -5.5t6.5 1.5
l505 348q9 7 18.5 6t14.5 -10l23 -32q10 -18 -10 -35l-572 -391q-4 -4 -4 -11z" />
    <glyph glyph-name="lslash" unicode="&#x142;" horiz-adv-x="450" 
d="M578 856q10 -20 -13 -33l-237 -139q-6 -3 -6 -10l-80 -649q-4 -25 -27 -25h-57q-10 0 -16.5 7t-6.5 18l72 575q0 9 -10 6l-121 -71q-21 -14 -31 10l-14 33q-9 18 12 32l172 101q6 3 6 10l84 688q1 10 9.5 17.5t19.5 7.5h57q9 0 15.5 -7.5t5.5 -17.5l-76 -614q0 -10 10 -7
l186 111q18 12 31 -8z" />
    <glyph glyph-name="Nacute" unicode="&#x143;" horiz-adv-x="1345" 
d="M780 1608q-13 0 -16.5 8t4.5 20l143 219q10 17 31 17h55q13 0 17 -8t-4 -21l-156 -219q-8 -16 -29 -16h-45zM186 0q-10 0 -16 7t-4 18l170 1384q4 25 26 25h60q21 0 27 -17l567 -1192q1 -4 3 -5t4 1t3 6l143 1182q1 10 9.5 17.5t19.5 7.5h57q9 0 15.5 -7.5t5.5 -17.5
l-170 -1384q-4 -25 -27 -25h-59q-22 0 -27 16l-567 1194q-1 4 -3 5t-4 -1t-3 -6l-146 -1183q0 -10 -7.5 -17.5t-18.5 -7.5h-58z" />
    <glyph glyph-name="nacute" unicode="&#x144;" 
d="M807 1448q14 0 17.5 -8t-5.5 -21l-153 -219q-11 -16 -29 -16h-47q-12 0 -15.5 8t3.5 20l145 220q10 16 31 16h53zM657 1047q152 0 234 -96.5t63 -254.5l-84 -671q0 -10 -7.5 -17.5t-18.5 -7.5h-58q-10 0 -16 7t-4 18l80 651q15 122 -47 198t-176 76q-120 0 -203 -75
t-98 -195l-80 -655q-4 -25 -27 -25h-57q-10 0 -16.5 7t-6.5 18l121 983q1 10 9.5 17t19.5 7h57q9 0 15 -7t5 -17l-12 -97q0 -12 8 -4q106 140 299 140z" />
    <glyph glyph-name="uni0145" unicode="&#x145;" horiz-adv-x="1345" 
d="M186 0q-10 0 -16 7t-4 18l170 1384q4 25 26 25h60q21 0 27 -17l567 -1192q1 -4 3 -5t4 1t3 6l143 1182q1 10 9.5 17.5t19.5 7.5h57q9 0 15.5 -7.5t5.5 -17.5l-170 -1384q-4 -25 -27 -25h-59q-22 0 -27 16l-567 1194q-1 4 -3 5t-4 -1t-3 -6l-146 -1183q0 -10 -7.5 -17.5
t-18.5 -7.5h-58zM502 -385q-13 0 -17 8.5t4 20.5l144 219q10 16 31 16h55q13 0 16.5 -7.5t-4.5 -21.5l-153 -219q-11 -16 -31 -16h-45z" />
    <glyph glyph-name="uni0146" unicode="&#x146;" 
d="M657 1047q152 0 234 -96.5t63 -254.5l-84 -671q0 -10 -7.5 -17.5t-18.5 -7.5h-58q-10 0 -16 7t-4 18l80 651q15 122 -47 198t-176 76q-120 0 -203 -75t-98 -195l-80 -655q-4 -25 -27 -25h-57q-10 0 -16.5 7t-6.5 18l121 983q1 10 9.5 17t19.5 7h57q9 0 15 -7t5 -17
l-12 -97q0 -12 8 -4q106 140 299 140zM365 -385q-13 0 -17 8.5t4 20.5l144 219q13 16 32 16h54q13 0 16.5 -7.5t-4.5 -21.5l-154 -219q-11 -16 -30 -16h-45z" />
    <glyph glyph-name="Ncaron" unicode="&#x147;" horiz-adv-x="1345" 
d="M791 1585q-16 0 -27 14l-129 213q-6 12 -1.5 21.5t19.5 9.5h39q21 0 29 -14l108 -176q0 -3 4.5 -3t6.5 3l151 176q14 14 31 14h39q15 0 18 -9.5t-8 -21.5l-184 -213q-11 -14 -29 -14h-67zM186 0q-10 0 -16 7t-4 18l170 1384q4 25 26 25h60q21 0 27 -17l567 -1192
q1 -4 3 -5t4 1t3 6l143 1182q1 10 9.5 17.5t19.5 7.5h57q9 0 15.5 -7.5t5.5 -17.5l-170 -1384q-4 -25 -27 -25h-59q-22 0 -27 16l-567 1194q-1 4 -3 5t-4 -1t-3 -6l-146 -1183q0 -10 -7.5 -17.5t-18.5 -7.5h-58z" />
    <glyph glyph-name="ncaron" unicode="&#x148;" 
d="M698 1176q-12 -15 -28 -15h-68q-18 0 -27 15l-129 213q-7 12 -1.5 21t20.5 9h39q20 0 28 -14l107 -176q1 -3 6 -3t6 3l152 176q11 14 28 14h41q13 0 16.5 -9t-5.5 -21zM657 1047q152 0 234 -96.5t63 -254.5l-84 -671q0 -10 -7.5 -17.5t-18.5 -7.5h-58q-10 0 -16 7t-4 18
l80 651q15 122 -47 198t-176 76q-120 0 -203 -75t-98 -195l-80 -655q-4 -25 -27 -25h-57q-10 0 -16.5 7t-6.5 18l121 983q1 10 9.5 17t19.5 7h57q9 0 15 -7t5 -17l-12 -97q0 -12 8 -4q106 140 299 140z" />
    <glyph glyph-name="Eng" unicode="&#x14a;" horiz-adv-x="1349" 
d="M1245 1159v-8h2l-139 -1143q-21 -160 -94.5 -236.5t-227.5 -80.5q-23 0 -20 24l6 47q4 25 27 25q94 3 140 54.5t62 152.5q0 8 -2 10l-573 1206q-1 4 -3 5t-4 -1t-3 -6l-146 -1183q0 -10 -7.5 -17.5t-18.5 -7.5h-58q-10 0 -16 7t-4 18l170 1384q4 25 26 25h60q21 0 27 -17
l567 -1192q1 -4 3 -5t4 1t3 6l143 1182q1 10 9.5 17.5t19.5 7.5h57q9 0 15.5 -7.5t5.5 -17.5z" />
    <glyph glyph-name="eng" unicode="&#x14b;" horiz-adv-x="1069" 
d="M920 426l2 -8h2l-56 -447q-18 -150 -92.5 -229.5t-218.5 -85.5q-10 0 -16 7t-4 18l6 40q0 24 26 27q169 15 195 221l2 23l-2 8h-2l84 676q15 122 -47 198t-176 76q-120 0 -203 -75t-98 -195l-80 -655q-4 -25 -27 -25h-57q-10 0 -16.5 7t-6.5 18l121 983q1 10 9.5 17
t19.5 7h57q9 0 15 -7t5 -17l-12 -97q0 -6 2.5 -7t5.5 5q107 138 299 138q152 0 234 -96.5t63 -254.5z" />
    <glyph glyph-name="Omacron" unicode="&#x14c;" horiz-adv-x="1234" 
d="M541 1642q-9 0 -15.5 7.5t-5.5 17.5l4 33q2 11 9.5 17.5t17.5 6.5h473q23 0 20 -24l-4 -33q-4 -25 -26 -25h-473zM573 -16q-207 0 -317 128t-84 337l66 536q26 210 167.5 337.5t348.5 127.5q209 0 320 -128t85 -337l-65 -536q-25 -209 -168.5 -337t-352.5 -128zM586 78
q161 0 271 100t132 266l66 543q20 164 -66.5 265.5t-247.5 101.5q-158 0 -267.5 -101.5t-129.5 -265.5l-68 -543q-20 -166 65 -266t245 -100z" />
    <glyph glyph-name="omacron" unicode="&#x14d;" horiz-adv-x="1071" 
d="M412 1241q-11 0 -17.5 7.5t-5.5 17.5l4 32q1 10 9.5 17.5t17.5 7.5h473q10 0 16 -7t4 -18l-4 -32q0 -10 -7.5 -17.5t-18.5 -7.5h-471zM496 -16q-143 0 -232 75t-108 203q-15 85 8 256q17 157 51 254q52 127 161 202t249 75q141 0 232 -75.5t108 -201.5q12 -79 -9 -254
q-23 -175 -53 -256q-50 -127 -159.5 -202.5t-247.5 -75.5zM506 80q106 0 187.5 60t115.5 159q22 65 39 217q19 159 14 217q-9 99 -76.5 159t-173.5 60q-107 0 -188 -59.5t-115 -159.5q-23 -64 -39 -217q-21 -168 -14 -217q9 -101 75.5 -160t174.5 -59z" />
    <glyph glyph-name="Ohungarumlaut" unicode="&#x150;" horiz-adv-x="1234" 
d="M586 1597q-13 0 -17 8.5t4 20.5l138 217q13 19 30 19h52q13 0 16.5 -8.5t-4.5 -20.5l-146 -219q-14 -17 -32 -17h-41zM899 1597q-13 0 -16.5 8.5t4.5 20.5l143 219q10 17 31 17h47q13 0 16.5 -8.5t-4.5 -20.5l-145 -219q-10 -17 -33 -17h-43zM573 -16q-207 0 -317 128
t-84 337l66 536q26 210 167.5 337.5t348.5 127.5q209 0 320 -128t85 -337l-65 -536q-25 -209 -168.5 -337t-352.5 -128zM586 78q161 0 271 100t132 266l66 543q20 164 -66.5 265.5t-247.5 101.5q-158 0 -267.5 -101.5t-129.5 -265.5l-68 -543q-20 -166 65 -266t245 -100z
" />
    <glyph glyph-name="ohungarumlaut" unicode="&#x151;" horiz-adv-x="1071" 
d="M455 1196q-13 0 -17 8.5t4 20.5l138 217q12 18 30 18h52q13 0 16.5 -8t-4.5 -20l-146 -220q-13 -16 -32 -16h-41zM768 1196q-12 0 -15.5 8.5t3.5 20.5l143 219q10 16 31 16h47q28 0 14 -28l-147 -220q-10 -16 -31 -16h-45zM496 -16q-143 0 -232 75t-108 203q-15 85 8 256
q17 157 51 254q52 127 161 202t249 75q141 0 232 -75.5t108 -201.5q12 -79 -9 -254q-23 -175 -53 -256q-50 -127 -159.5 -202.5t-247.5 -75.5zM506 80q106 0 187.5 60t115.5 159q22 65 39 217q19 159 14 217q-9 99 -76.5 159t-173.5 60q-107 0 -188 -59.5t-115 -159.5
q-23 -64 -39 -217q-21 -168 -14 -217q9 -101 75.5 -160t174.5 -59z" />
    <glyph glyph-name="OE" unicode="&#x152;" horiz-adv-x="1820" 
d="M1825 1362q-1 -10 -9.5 -17.5t-17.5 -7.5h-653q-8 0 -8 -8l-68 -553q0 -8 6 -8h436q9 0 15.5 -7.5t5.5 -17.5l-6 -47q-2 -11 -9.5 -17.5t-17.5 -6.5h-436q-2 0 -5 -2.5t-3 -5.5l-68 -560q-1 -3 1 -5.5t5 -2.5h652q23 0 20 -24l-6 -47q0 -10 -8 -17.5t-19 -7.5h-739
q-10 0 -16.5 7t-6.5 18l15 112q0 12 -8 4q-66 -75 -158 -116t-197 -41q-179 0 -278 121t-76 309l74 604q23 188 152 310t308 122q105 0 186.5 -41t129.5 -117q6 -9 10 4l12 113q1 10 9.5 17.5t17.5 7.5h741q10 0 16.5 -7t4.5 -18zM553 78q145 0 246 94.5t119 237.5l75 610
q18 145 -60 239.5t-222 94.5t-244.5 -94.5t-118.5 -239.5l-76 -610q-18 -143 59.5 -237.5t221.5 -94.5z" />
    <glyph glyph-name="oe" unicode="&#x153;" horiz-adv-x="1695" 
d="M1165 78q88 0 163 45.5t116 118.5q16 25 35 14l32 -18q18 -12 9 -33q-55 -102 -153.5 -161.5t-221.5 -59.5q-110 0 -188.5 50.5t-116.5 137.5q-6 10 -13 0q-59 -86 -151.5 -137t-198.5 -51q-136 0 -222.5 75.5t-104.5 202.5q-10 70 14 256q18 172 49 254
q46 125 152.5 201t242.5 76q105 0 185.5 -51.5t117.5 -137.5q7 -10 13 0q57 85 149 137t197 52q138 0 227.5 -77t104.5 -202q6 -42 3.5 -89.5t-16.5 -166.5q-3 -27 -26 -27h-629q-8 0 -8 -8q-18 -152 -13 -180q6 -101 72.5 -161t179.5 -60zM782 299q16 49 37 217
q21 181 17 217q-6 98 -71 158.5t-169 60.5q-103 0 -180 -60.5t-109 -158.5q-18 -48 -39 -217q-20 -174 -14 -217q6 -100 68.5 -159.5t166.5 -59.5q103 0 182.5 60.5t110.5 158.5zM967 733q-15 -50 -31 -158q0 -8 8 -8h537q8 0 8 8q10 83 10 158q-8 98 -72.5 158.5
t-169.5 60.5q-103 0 -180.5 -60.5t-109.5 -158.5z" />
    <glyph glyph-name="Racute" unicode="&#x154;" horiz-adv-x="1216" 
d="M922 1849q14 0 17.5 -7.5t-5.5 -20.5l-154 -219q-8 -17 -28 -17h-47q-12 0 -16 8.5t3 20.5l146 219q10 16 30 16h54zM991 0q-18 0 -24 18l-228 652q-3 6 -6 6h-375q-8 0 -8 -8l-80 -643q0 -10 -7.5 -17.5t-18.5 -7.5h-58q-10 0 -16 7t-4 18l170 1388q1 10 9 17.5t17 7.5
h498q167 0 256.5 -106.5t67.5 -278.5q-19 -147 -109 -246.5t-225 -122.5q-9 -3 -6 -10l225 -645q6 -29 -22 -29h-56zM440 1339q-8 0 -8 -8l-70 -557q0 -8 9 -8h397q123 0 208.5 78.5t102.5 206.5q15 131 -51 209.5t-190 78.5h-398z" />
    <glyph glyph-name="racute" unicode="&#x155;" horiz-adv-x="712" 
d="M707 1464q14 0 17.5 -7t-5.5 -21l-154 -219q-11 -17 -30 -17h-46q-13 0 -16.5 8.5t4.5 20.5l144 219q13 16 32 16h54zM639 1040q61 0 111 -22q14 -9 8 -31l-25 -59q-9 -24 -31 -15q-44 15 -94 13q-111 -1 -194.5 -86.5t-98.5 -208.5l-73 -606q-4 -25 -27 -25h-57
q-10 0 -16.5 7t-6.5 18l121 983q1 10 9.5 17t19.5 7h57q9 0 15 -7t5 -17l-16 -136q-1 -4 0 -6t3.5 -1t4.5 5q110 170 285 170z" />
    <glyph glyph-name="uni0156" unicode="&#x156;" horiz-adv-x="1216" 
d="M850 684q-9 -3 -6 -10l225 -645q6 -29 -22 -29h-56q-18 0 -24 18l-228 652q-3 6 -6 6h-375q-8 0 -8 -8l-80 -643q0 -10 -7.5 -17.5t-18.5 -7.5h-58q-10 0 -16 7t-4 18l170 1388q1 10 9 17.5t17 7.5h498q167 0 256.5 -106.5t67.5 -278.5q-19 -147 -109 -246.5t-225 -122.5
zM440 1339q-8 0 -8 -8l-70 -557q0 -8 9 -8h397q123 0 208.5 78.5t102.5 206.5q15 131 -51 209.5t-190 78.5h-398zM440 -385q-13 0 -16.5 8.5t4.5 20.5l143 219q10 16 31 16h55q13 0 17 -7.5t-4 -21.5l-156 -219q-8 -16 -29 -16h-45z" />
    <glyph glyph-name="uni0157" unicode="&#x157;" horiz-adv-x="718" 
d="M639 1040q61 0 111 -22q14 -9 8 -31l-25 -59q-9 -24 -31 -15q-44 15 -94 13q-111 -1 -194.5 -86.5t-98.5 -208.5l-73 -606q-4 -25 -27 -25h-57q-10 0 -16.5 7t-6.5 18l121 983q1 10 9.5 17t19.5 7h57q9 0 15 -7t5 -17l-16 -136q-1 -4 0 -6t3.5 -1t4.5 5q110 170 285 170z
M-27 -385q-13 0 -16.5 8.5t4.5 20.5l143 219q10 16 31 16h55q13 0 17 -7.5t-4 -21.5l-156 -219q-8 -16 -29 -16h-45z" />
    <glyph glyph-name="Rcaron" unicode="&#x158;" horiz-adv-x="1216" 
d="M813 1577q-11 -14 -29 -14h-67q-19 0 -27 14l-129 213q-8 12 -2 21.5t21 9.5h38q20 0 29 -15l107 -176q2 -3 6 -3t6 3l152 176q12 15 28 15h41q13 0 16 -9.5t-6 -21.5zM991 0q-18 0 -24 18l-228 652q-3 6 -6 6h-375q-8 0 -8 -8l-80 -643q0 -10 -7.5 -17.5t-18.5 -7.5h-58
q-10 0 -16 7t-4 18l170 1388q1 10 9 17.5t17 7.5h498q167 0 256.5 -106.5t67.5 -278.5q-19 -147 -109 -246.5t-225 -122.5q-9 -3 -6 -10l225 -645q6 -29 -22 -29h-56zM440 1339q-8 0 -8 -8l-70 -557q0 -8 9 -8h397q123 0 208.5 78.5t102.5 206.5q15 131 -51 209.5t-190 78.5
h-398z" />
    <glyph glyph-name="rcaron" unicode="&#x159;" horiz-adv-x="712" 
d="M598 1192q-14 -14 -31 -14h-67q-17 0 -25 14l-129 213q-7 12 -2.5 21.5t18.5 9.5h41q18 0 27 -15l109 -176q4 -8 12 0l149 176q15 15 31 15h39q15 0 18 -9.5t-8 -21.5zM639 1040q61 0 111 -22q14 -9 8 -31l-25 -59q-9 -24 -31 -15q-44 15 -94 13q-111 -1 -194.5 -86.5
t-98.5 -208.5l-73 -606q-4 -25 -27 -25h-57q-10 0 -16.5 7t-6.5 18l121 983q1 10 9.5 17t19.5 7h57q9 0 15 -7t5 -17l-16 -136q-1 -4 0 -6t3.5 -1t4.5 5q110 170 285 170z" />
    <glyph glyph-name="Sacute" unicode="&#x15a;" horiz-adv-x="1159" 
d="M678 1602q-13 0 -16.5 8t4.5 20l143 219q14 17 33 17h53q14 0 17.5 -8t-5.5 -21l-153 -219q-11 -16 -31 -16h-45zM549 -16q-216 0 -329 101t-93 271l8 64q2 11 9.5 17.5t17.5 6.5h53q11 0 16.5 -7t4.5 -17l-7 -58q-15 -126 76.5 -204t263.5 -78q165 0 260.5 71t110.5 195
q13 111 -61.5 184t-278.5 166q-75 34 -111 52t-90 48.5t-78 57t-49.5 64t-32 82t0.5 100.5q22 168 145 259t322 91q218 0 327.5 -102t87.5 -275l-4 -43q-1 -10 -9 -17t-17 -7h-58q-22 0 -22 24l6 37q15 128 -70.5 207.5t-259.5 79.5q-151 0 -240 -64.5t-104 -185.5
q-7 -62 6.5 -105.5t63.5 -82t99 -63.5t155 -71q82 -36 138 -66t109 -69.5t82.5 -81t43.5 -96t6 -119.5q-21 -165 -152 -265.5t-346 -100.5z" />
    <glyph glyph-name="sacute" unicode="&#x15b;" horiz-adv-x="950" 
d="M537 1192q-13 0 -17 8.5t4 20.5l144 219q10 16 30 16h56q13 0 16.5 -8t-4.5 -21l-156 -219q-8 -16 -28 -16h-45zM444 -10q-161 0 -253 77.5t-78 190.5l4 23q0 10 7.5 17t18.5 7h56q23 0 20 -20l-2 -23q-9 -75 57 -129.5t179 -54.5q112 0 188.5 54.5t87.5 137.5
q4 34 -7.5 62t-29.5 46t-53 35.5t-63.5 27.5t-74.5 25q-11 3 -16 5q-45 15 -70 23.5t-64.5 25.5t-61.5 31t-48.5 37t-38.5 47.5t-18.5 58t-1.5 72.5q15 125 120.5 199.5t262.5 74.5q159 0 247.5 -76.5t74.5 -195.5v-2q-4 -25 -27 -25h-53q-11 0 -17.5 4.5t-5.5 10.5l2 12
q9 77 -54.5 129.5t-180.5 52.5q-110 0 -184 -48.5t-84 -129.5q-3 -33 8 -60.5t29 -46t54 -36t65 -28t79 -26.5q146 -46 202 -79q132 -77 114 -220q-15 -128 -122.5 -207t-267.5 -79z" />
    <glyph glyph-name="Scedilla" unicode="&#x15e;" horiz-adv-x="1159" 
d="M1047 350q-19 -157 -138.5 -255.5t-318.5 -110.5q-11 0 -4 -11q115 -109 71 -233q-20 -57 -65 -88t-92 -32.5t-94 5.5q-22 6 -15 29l6 22q11 25 33 19q52 -11 94 6t58 68q18 55 -7 111t-79 102q0 4 -9 4q-187 15 -283 114t-77 256l8 64q2 11 9.5 17.5t17.5 6.5h53
q11 0 16.5 -7t4.5 -17l-7 -58q-15 -126 76.5 -204t263.5 -78q165 0 260.5 71t110.5 195q13 111 -61.5 184t-278.5 166q-75 34 -111 52t-90 48.5t-78 57t-49.5 64t-32 82t0.5 100.5q22 168 145 259t322 91q218 0 327.5 -102t87.5 -275l-4 -43q-1 -10 -9 -17t-17 -7h-58
q-22 0 -22 24l6 37q15 128 -70.5 207.5t-259.5 79.5q-151 0 -240 -64.5t-104 -185.5q-7 -62 6.5 -105.5t63.5 -82t99 -63.5t155 -71q82 -36 138 -66t109 -69.5t82.5 -81t43.5 -96t6 -119.5z" />
    <glyph glyph-name="scedilla" unicode="&#x15f;" horiz-adv-x="950" 
d="M834 276q-13 -117 -104.5 -193.5t-231.5 -88.5q-11 -3 -4 -10q114 -117 71 -238q-20 -58 -65.5 -88.5t-93 -32t-95.5 5.5q-17 6 -14 29l8 23q10 24 31 18q119 -25 153 74q34 106 -86 213q-2 4 -8 4q-140 12 -217 87.5t-65 178.5l4 23q0 10 7.5 17t18.5 7h56q23 0 20 -20
l-2 -23q-9 -75 57 -129.5t179 -54.5q112 0 188.5 54.5t87.5 137.5q4 34 -7.5 62t-29.5 46t-53 35.5t-63.5 27.5t-74.5 25q-11 3 -16 5q-45 15 -70 23.5t-64.5 25.5t-61.5 31t-48.5 37t-38.5 47.5t-18.5 58t-1.5 72.5q15 125 120.5 199.5t262.5 74.5q159 0 247.5 -76.5
t74.5 -195.5v-2q-4 -25 -27 -25h-53q-11 0 -17.5 4.5t-5.5 10.5l2 12q9 77 -54.5 129.5t-180.5 52.5q-110 0 -184 -48.5t-84 -129.5q-3 -33 8 -60.5t29 -46t54 -36t65 -28t79 -26.5q146 -46 202 -79q132 -77 114 -220z" />
    <glyph glyph-name="Scaron" unicode="&#x160;" horiz-adv-x="1159" 
d="M688 1579q-15 0 -26 14l-127 213q-7 12 -2.5 21.5t18.5 9.5h41q18 0 26 -14l109 -176q4 -8 12 0l150 176q14 14 31 14h38q15 0 18.5 -9.5t-7.5 -21.5l-183 -213q-14 -14 -30 -14h-68zM549 -16q-216 0 -329 101t-93 271l8 64q2 11 9.5 17.5t17.5 6.5h53q11 0 16.5 -7
t4.5 -17l-7 -58q-15 -126 76.5 -204t263.5 -78q165 0 260.5 71t110.5 195q13 111 -61.5 184t-278.5 166q-75 34 -111 52t-90 48.5t-78 57t-49.5 64t-32 82t0.5 100.5q22 168 145 259t322 91q218 0 327.5 -102t87.5 -275l-4 -43q-1 -10 -9 -17t-17 -7h-58q-22 0 -22 24l6 37
q15 128 -70.5 207.5t-259.5 79.5q-151 0 -240 -64.5t-104 -185.5q-7 -62 6.5 -105.5t63.5 -82t99 -63.5t155 -71q82 -36 138 -66t109 -69.5t82.5 -81t43.5 -96t6 -119.5q-21 -165 -152 -265.5t-346 -100.5z" />
    <glyph glyph-name="scaron" unicode="&#x161;" horiz-adv-x="950" 
d="M547 1169q-15 0 -27 15l-129 213q-6 12 -1 21t20 9h39q20 0 28 -14l109 -176q0 -3 4 -3t6 3l152 176q14 14 28 14h41q15 0 18 -9t-8 -21l-184 -213q-12 -15 -29 -15h-67zM444 -10q-161 0 -253 77.5t-78 190.5l4 23q0 10 7.5 17t18.5 7h56q23 0 20 -20l-2 -23
q-9 -75 57 -129.5t179 -54.5q112 0 188.5 54.5t87.5 137.5q4 34 -7.5 62t-29.5 46t-53 35.5t-63.5 27.5t-74.5 25q-11 3 -16 5q-45 15 -70 23.5t-64.5 25.5t-61.5 31t-48.5 37t-38.5 47.5t-18.5 58t-1.5 72.5q15 125 120.5 199.5t262.5 74.5q159 0 247.5 -76.5t74.5 -195.5
v-2q-4 -25 -27 -25h-53q-11 0 -17.5 4.5t-5.5 10.5l2 12q9 77 -54.5 129.5t-180.5 52.5q-110 0 -184 -48.5t-84 -129.5q-3 -33 8 -60.5t29 -46t54 -36t65 -28t79 -26.5q146 -46 202 -79q132 -77 114 -220q-15 -128 -122.5 -207t-267.5 -79z" />
    <glyph glyph-name="uni0162" unicode="&#x162;" horiz-adv-x="1122" 
d="M737 1337q-10 0 -10 -8l-160 -1311l-4 -18q0 -2 4 -4q118 -115 74 -240q-19 -57 -64 -88t-92.5 -32t-95.5 6q-20 6 -14 28l6 23q10 24 33 18q52 -11 93.5 6t57.5 68q31 103 -84 211q0 4 -8 4q-13 7 -10 25l160 1304q0 8 -9 8h-372q-10 0 -16.5 7t-4.5 18l6 47q4 25 27 25
h887q22 0 22 -25l-6 -47q-1 -10 -9.5 -17.5t-17.5 -7.5h-393z" />
    <glyph glyph-name="uni0163" unicode="&#x163;" horiz-adv-x="712" 
d="M551 27q-4 -25 -27 -25q-9 0 -27.5 -1t-27.5 -1q-67 0 -114 11.5t-82.5 39t-49 79.5t-4.5 128l82 674q0 8 -6 8h-117q-9 0 -15 7.5t-5 17.5l6 43q3 24 26 24h115q6 0 10 8l27 230q1 10 9.5 17t17.5 7h57q9 0 15 -7t5 -17l-28 -230q0 -8 6 -8h229q11 0 16.5 -7t4.5 -17
l-4 -43q-1 -10 -9.5 -17.5t-19.5 -7.5h-227q-7 0 -11 -8l-77 -645q-13 -104 28.5 -146.5t141.5 -42.5h41q23 0 20 -24zM424 -6q19 0 29 -10q126 -118 82 -246q-20 -58 -65.5 -88.5t-93 -32t-95.5 5.5q-18 6 -15 29l8 22q11 25 31 19q54 -11 95 6t59 68q27 97 -70 198
q-12 11 -7.5 20t21.5 9h21z" />
    <glyph glyph-name="Tcaron" unicode="&#x164;" horiz-adv-x="1122" 
d="M764 1561q-15 -15 -31 -15h-65q-18 0 -27 15l-129 213q-8 12 -2.5 21t20.5 9h39q18 0 29 -14l107 -176q1 -3 6 -3t6 3l151 176q11 14 29 14h39q15 0 18 -9t-8 -21zM1141 1434q22 0 22 -25l-6 -47q-1 -10 -9.5 -17.5t-17.5 -7.5h-393q-10 0 -10 -8l-160 -1304
q-4 -25 -26 -25h-58q-10 0 -16 7t-4 18l160 1304q0 8 -9 8h-372q-10 0 -16.5 7t-4.5 18l6 47q4 25 27 25h887z" />
    <glyph glyph-name="tcaron" unicode="&#x165;" horiz-adv-x="712" 
d="M475 1421q-14 -14 -31 -14h-67q-17 0 -25 14l-129 213q-7 12 -2 21.5t19 9.5h41q18 0 26 -14l109 -176q4 -8 12 0l150 176q14 14 30 14h39q15 0 18 -9.5t-8 -21.5zM670 965q-1 -10 -9.5 -17.5t-19.5 -7.5h-227q-7 0 -11 -8l-77 -645q-13 -104 28.5 -146.5t141.5 -42.5h41
q23 0 20 -24l-6 -47q-4 -25 -27 -25q-9 0 -27.5 -1t-27.5 -1q-67 0 -114 11.5t-82.5 39t-49 79.5t-4.5 128l82 674q0 8 -6 8h-117q-9 0 -15 7.5t-5 17.5l6 43q3 24 26 24h115q6 0 10 8l27 230q1 10 9.5 17t17.5 7h57q9 0 15 -7t5 -17l-28 -230q0 -8 6 -8h229q11 0 16.5 -7
t4.5 -17z" />
    <glyph glyph-name="Tbar" unicode="&#x166;" horiz-adv-x="1191" 
d="M1157 1362q-1 -10 -9.5 -17.5t-17.5 -7.5h-393q-10 0 -10 -8l-55 -459q-1 -3 1 -5.5t5 -2.5h223q9 0 15.5 -7t5.5 -17l-4 -29q-4 -25 -27 -25h-223q-9 0 -9 -8l-92 -751q-4 -25 -26 -25h-58q-10 0 -16 7t-4 18l92 751q0 8 -8 8h-219q-10 0 -16.5 7t-6.5 18l4 29
q2 11 9.5 17.5t17.5 6.5h221q8 0 8 8l58 459q0 8 -9 8h-372q-10 0 -16.5 7t-4.5 18l6 47q4 25 27 25h887q22 0 22 -25z" />
    <glyph glyph-name="tbar" unicode="&#x167;" horiz-adv-x="1191" 
d="M670 965q-1 -10 -9.5 -17.5t-19.5 -7.5h-227q-7 0 -11 -8l-24 -209q0 -8 6 -8h223q10 0 16.5 -7t4.5 -18l-4 -28q0 -10 -8 -17.5t-19 -7.5h-221q-6 0 -10 -8l-41 -342q-13 -104 28.5 -146.5t141.5 -42.5h41q23 0 20 -24l-6 -47q-4 -25 -27 -25q-9 0 -27.5 -1t-27.5 -1
q-67 0 -114 11.5t-82.5 39t-49 79.5t-4.5 128l45 371q0 8 -8 8h-102q-10 0 -16.5 7t-4.5 18l4 28q0 10 8 17.5t19 7.5h102q6 0 10 8l25 209q0 8 -6 8h-117q-9 0 -15 7.5t-5 17.5l6 43q3 24 26 24h115q6 0 10 8l27 230q1 10 9.5 17t17.5 7h57q9 0 15 -7t5 -17l-28 -230
q0 -8 6 -8h229q11 0 16.5 -7t4.5 -17z" />
    <glyph glyph-name="Umacron" unicode="&#x16a;" horiz-adv-x="1296" 
d="M573 1651q-9 0 -15 7t-5 17l4 33q4 25 27 25h473q10 0 16 -7t4 -18l-4 -33q-3 -24 -26 -24h-474zM606 -16q-207 0 -318.5 124t-86.5 326l118 975q1 10 9.5 17.5t17.5 7.5h57q11 0 17.5 -7.5t5.5 -17.5l-121 -979q-20 -157 66.5 -253.5t246.5 -96.5t269.5 96.5
t128.5 253.5l121 979q4 25 26 25h58q10 0 16 -7t4 -18l-119 -975q-25 -203 -166 -326.5t-350 -123.5z" />
    <glyph glyph-name="umacron" unicode="&#x16b;" horiz-adv-x="1062" 
d="M887 1307q22 0 22 -25l-4 -33q-1 -10 -9 -17t-19 -7h-471q-23 0 -23 24l4 33q1 10 9.5 17.5t17.5 7.5h473zM870 1008q2 11 9.5 17.5t17.5 6.5h55q23 0 23 -24l-121 -983q-1 -10 -9.5 -17.5t-17.5 -7.5h-57q-9 0 -15 7.5t-5 17.5l12 96q0 6 -2.5 7t-5.5 -5
q-106 -137 -297 -137q-147 0 -233 90.5t-66 247.5l84 684q0 10 7.5 17t18.5 7h56q23 0 20 -24l-80 -656q-15 -123 46 -196.5t179 -73.5q121 0 204 74t98 196z" />
    <glyph glyph-name="Uring" unicode="&#x16e;" horiz-adv-x="1296" 
d="M803 1595q-85 0 -136 60.5t-40 146.5q10 86 76 145.5t151 59.5t137.5 -59.5t42.5 -145.5q-11 -86 -78 -146.5t-153 -60.5zM811 1661q58 0 104.5 41t53.5 100t-29 100.5t-94 41.5q-57 0 -102 -41t-52 -101q-7 -59 28 -100t91 -41zM606 -16q-207 0 -318.5 124t-86.5 326
l118 975q1 10 9.5 17.5t17.5 7.5h57q11 0 17.5 -7.5t5.5 -17.5l-121 -979q-20 -157 66.5 -253.5t246.5 -96.5t269.5 96.5t128.5 253.5l121 979q4 25 26 25h58q10 0 16 -7t4 -18l-119 -975q-25 -203 -166 -326.5t-350 -123.5z" />
    <glyph glyph-name="uring" unicode="&#x16f;" horiz-adv-x="1062" 
d="M635 1169q-86 0 -137.5 60t-40.5 147q10 86 76 145.5t151 59.5q86 0 138.5 -59.5t41.5 -145.5q-10 -86 -77 -146.5t-152 -60.5zM678 1518q-57 0 -103 -41t-53 -101t28.5 -100.5t92.5 -40.5q56 0 102.5 41t53.5 100t-29 100.5t-92 41.5zM870 1008q2 11 9.5 17.5t17.5 6.5
h55q23 0 23 -24l-121 -983q-1 -10 -9.5 -17.5t-17.5 -7.5h-57q-9 0 -15 7.5t-5 17.5l12 96q0 6 -2.5 7t-5.5 -5q-106 -137 -297 -137q-147 0 -233 90.5t-66 247.5l84 684q0 10 7.5 17t18.5 7h56q23 0 20 -24l-80 -656q-15 -123 46 -196.5t179 -73.5q121 0 204 74t98 196z
" />
    <glyph glyph-name="Uhungarumlaut" unicode="&#x170;" horiz-adv-x="1296" 
d="M618 1606q-13 0 -16.5 8t4.5 20l137 217q13 19 31 19h51q13 0 17 -8.5t-4 -20.5l-146 -219q-13 -16 -33 -16h-41zM932 1606q-13 0 -16.5 8t4.5 20l143 219q10 17 31 17h47q13 0 16.5 -8.5t-4.5 -20.5l-145 -219q-10 -16 -31 -16h-45zM606 -16q-207 0 -318.5 124
t-86.5 326l118 975q1 10 9.5 17.5t17.5 7.5h57q11 0 17.5 -7.5t5.5 -17.5l-121 -979q-20 -157 66.5 -253.5t246.5 -96.5t269.5 96.5t128.5 253.5l121 979q4 25 26 25h58q10 0 16 -7t4 -18l-119 -975q-25 -203 -166 -326.5t-350 -123.5z" />
    <glyph glyph-name="uhungarumlaut" unicode="&#x171;" horiz-adv-x="1062" 
d="M655 1444q13 0 17 -8.5t-4 -20.5l-146 -219q-10 -16 -30 -16h-43q-13 0 -17 8t4 20l137 217q13 19 31 19h51zM973 1444q12 0 15 -8.5t-3 -20.5l-147 -219q-10 -16 -31 -16h-45q-12 0 -15.5 8t3.5 20l143 219q10 17 31 17h49zM870 1008q2 11 9.5 17.5t17.5 6.5h55
q23 0 23 -24l-121 -983q-1 -10 -9.5 -17.5t-17.5 -7.5h-57q-9 0 -15 7.5t-5 17.5l12 96q0 6 -2.5 7t-5.5 -5q-106 -137 -297 -137q-147 0 -233 90.5t-66 247.5l84 684q0 10 7.5 17t18.5 7h56q23 0 20 -24l-80 -656q-15 -123 46 -196.5t179 -73.5q121 0 204 74t98 196z" />
    <glyph glyph-name="Uogonek" unicode="&#x172;" horiz-adv-x="1296" 
d="M1137 1409q4 25 26 25h58q10 0 16 -7t4 -18l-119 -975q-25 -195 -156 -317.5t-327 -132.5q-6 0 -10 -4q-118 -99 -113 -193q4 -51 41.5 -68t91.5 -6q24 6 27 -18l2 -21q3 -23 -21 -30q-34 -9 -72 -7t-69.5 11t-54.5 37.5t-27 72.5q-13 114 107 219q13 7 0 11
q-178 20 -270.5 140.5t-69.5 305.5l118 975q1 10 9.5 17.5t17.5 7.5h57q11 0 17.5 -7.5t5.5 -17.5l-121 -979q-20 -157 66.5 -253.5t246.5 -96.5t269.5 96.5t128.5 253.5z" />
    <glyph glyph-name="uogonek" unicode="&#x173;" 
d="M831 -301q22 5 25 -18l2 -21q3 -24 -20 -31q-49 -7 -96.5 -5.5t-84.5 32t-43 88.5q-13 132 148 250q5 5 0 8q-12 6 -12 23l12 96q0 6 -2.5 7t-5.5 -5q-106 -137 -297 -137q-147 0 -233 90.5t-66 247.5l84 684q0 10 7.5 17t18.5 7h56q23 0 20 -24l-80 -656
q-15 -123 46 -196.5t179 -73.5q121 0 204 74t98 196l79 656q2 11 9.5 17.5t17.5 6.5h55q23 0 23 -24l-123 -1002q-5 -9 -6 -10q-3 -3 -14.5 -12t-16.5 -13q-124 -101 -119 -198q4 -51 41.5 -68t93.5 -6z" />
    <glyph glyph-name="Wcircumflex" unicode="&#x174;" horiz-adv-x="1738" 
d="M811 1569q-15 0 -18 9t8 21l184 213q15 15 33 15h61q18 0 27 -15l135 -213q7 -12 1.5 -21t-19.5 -9h-43q-16 0 -27 14l-104 176q-1 3 -6 3t-7 -3l-151 -176q-11 -14 -31 -14h-43zM430 0q-24 0 -27 20l-215 1387q-3 27 23 27h61q24 0 27 -21l182 -1190q0 -3 1.5 -4t3.5 0
t3 4l449 1190q9 21 31 21h63q22 0 25 -21l168 -1190q1 -5 5 -5t5 5l477 1190q7 21 29 21h57q28 0 19 -27l-557 -1387q-7 -20 -31 -20h-62q-21 0 -24 20l-162 1213q0 3 -1 4t-3 0t-4 -4l-457 -1213q-6 -20 -29 -20h-57z" />
    <glyph glyph-name="wcircumflex" unicode="&#x175;" horiz-adv-x="1400" 
d="M588 1167q-13 0 -16 9.5t6 21.5l186 213q11 14 31 14h61q21 0 29 -14l135 -213q6 -12 0 -21.5t-21 -9.5h-41q-17 0 -26 15l-107 176q0 3 -4.5 3t-5.5 -3l-151 -176q-12 -15 -31 -15h-45zM336 0q-22 0 -25 20l-155 984q-2 12 4 20t18 8h58q23 0 26 -20l121 -852q1 -4 5 -4
t5 4l334 852q7 20 29 20h57q22 0 25 -20l125 -850q1 -4 6 -4t6 4l334 850q9 20 30 20l58 -2q11 0 15.5 -7t0.5 -19l-401 -984q-10 -20 -29 -20h-61q-22 0 -25 20l-131 816q-2 4 -5.5 4t-6.5 -4l-326 -816q-10 -20 -31 -20h-61z" />
    <glyph glyph-name="Ycircumflex" unicode="&#x176;" horiz-adv-x="1099" 
d="M494 1567q-13 0 -16.5 9t5.5 21l187 213q12 15 30 15h62q20 0 29 -15l135 -213q7 -12 0.5 -21t-21.5 -9h-41q-18 0 -26 14l-105 176q-1 3 -6 3t-6 -3l-152 -176q-11 -14 -30 -14h-45zM483 0q-10 0 -16 7t-4 18l76 626v11l-322 743q-6 13 0.5 21t20.5 8h57q19 0 29 -17
l276 -641q2 -3 6 -3t6 3l435 641q10 17 30 17h58q14 0 18.5 -8t-4.5 -21l-504 -743q-2 -2 -2 -11l-78 -626q-4 -25 -26 -25h-56z" />
    <glyph glyph-name="ycircumflex" unicode="&#x177;" horiz-adv-x="892" 
d="M342 1171q-14 0 -17 9.5t7 21.5l186 213q12 15 31 15h61q20 0 29 -15l135 -213q6 -12 0.5 -21.5t-20.5 -9.5h-41q-18 0 -27 15l-106 176q0 3 -5 3t-6 -3l-151 -176q-15 -15 -31 -15h-45zM27 -410q-6 0 -9 7.5t-2 17.5l7 45q4 25 16 25h14q47 1 79 9.5t59 26t53 56.5
t50 86.5t60 130.5q5 9 2 12l-215 998q-3 13 4.5 20.5t18.5 7.5h59q22 0 25 -20l176 -854q2 -4 6 -4t6 4l377 854q10 20 29 20h61q13 0 17.5 -7t-0.5 -21l-510 -1108q-61 -133 -109.5 -196t-105.5 -86.5t-154 -23.5h-14z" />
    <glyph glyph-name="Ydieresis" unicode="&#x178;" horiz-adv-x="1099" 
d="M551 1642q-35 0 -56 23.5t-18 60.5q5 34 32 58t62 24t56 -24t16 -58q-4 -37 -30.5 -60.5t-61.5 -23.5zM874 1642q-37 0 -57.5 23.5t-15.5 60.5q3 34 30 58t64 24q35 0 55 -24t15 -58q-4 -37 -30 -60.5t-61 -23.5zM483 0q-10 0 -16 7t-4 18l76 626v11l-322 743
q-6 13 0.5 21t20.5 8h57q19 0 29 -17l276 -641q2 -3 6 -3t6 3l435 641q10 17 30 17h58q14 0 18.5 -8t-4.5 -21l-504 -743q-2 -2 -2 -11l-78 -626q-4 -25 -26 -25h-56z" />
    <glyph glyph-name="Zacute" unicode="&#x179;" horiz-adv-x="1087" 
d="M635 1612q-13 0 -16.5 8t4.5 20l143 220q13 16 33 16h53q14 0 17.5 -8t-5.5 -21l-153 -219q-11 -16 -31 -16h-45zM80 0q-10 0 -16.5 7t-4.5 18l7 59q4 21 12 31l897 1212q3 3 1.5 6.5t-5.5 3.5h-727q-10 0 -16.5 7t-4.5 18l6 47q0 10 8 17.5t19 7.5h829q10 0 16.5 -7
t4.5 -18l-6 -59q-4 -20 -13 -31l-894 -1213q-4 -3 -2.5 -6.5t6.5 -3.5h725q23 0 20 -24l-6 -47q0 -10 -8 -17.5t-19 -7.5h-829z" />
    <glyph glyph-name="zacute" unicode="&#x17a;" horiz-adv-x="878" 
d="M492 1202q-13 0 -17 8.5t4 20.5l144 219q13 16 32 16h54q14 0 17.5 -7t-5.5 -21l-154 -219q-11 -17 -30 -17h-45zM55 0q-10 0 -16 7t-4 18l8 59q0 15 12 31l690 807q3 3 1.5 6.5t-5.5 3.5h-563q-23 0 -20 24l6 52q3 24 26 24h676q11 0 16.5 -7t4.5 -17l-8 -60
q0 -13 -13 -30l-696 -807q-3 -3 -1.5 -7t5.5 -4h576q23 0 20 -24l-6 -51q-4 -25 -27 -25h-682z" />
    <glyph glyph-name="Zdotaccent" unicode="&#x17b;" horiz-adv-x="1087" 
d="M688 1638q-35 0 -55.5 22.5t-16.5 57.5q5 34 30.5 56t60.5 22q33 0 51.5 -22t15.5 -56q-4 -35 -28.5 -57.5t-57.5 -22.5zM80 0q-10 0 -16.5 7t-4.5 18l7 59q4 21 12 31l897 1212q3 3 1.5 6.5t-5.5 3.5h-727q-10 0 -16.5 7t-4.5 18l6 47q0 10 8 17.5t19 7.5h829
q10 0 16.5 -7t4.5 -18l-6 -59q-4 -20 -13 -31l-894 -1213q-4 -3 -2.5 -6.5t6.5 -3.5h725q23 0 20 -24l-6 -47q0 -10 -8 -17.5t-19 -7.5h-829z" />
    <glyph glyph-name="zdotaccent" unicode="&#x17c;" horiz-adv-x="878" 
d="M545 1229q-37 0 -57 22.5t-15 57.5q3 33 28.5 55t61.5 22q34 0 52.5 -21.5t13.5 -55.5q-3 -35 -27 -57.5t-57 -22.5zM55 0q-10 0 -16 7t-4 18l8 59q0 15 12 31l690 807q3 3 1.5 6.5t-5.5 3.5h-563q-23 0 -20 24l6 52q3 24 26 24h676q11 0 16.5 -7t4.5 -17l-8 -60
q0 -13 -13 -30l-696 -807q-3 -3 -1.5 -7t5.5 -4h576q23 0 20 -24l-6 -51q-4 -25 -27 -25h-682z" />
    <glyph glyph-name="Zcaron" unicode="&#x17d;" horiz-adv-x="1087" 
d="M645 1589q-15 0 -24 15l-129 213q-7 12 -2.5 21t18.5 9h41q18 0 29 -14l106 -176q2 -3 6 -3t6 3l152 176q11 14 29 14h38q15 0 18.5 -9t-7.5 -21l-183 -213q-15 -15 -30 -15h-68zM80 0q-10 0 -16.5 7t-4.5 18l7 59q4 21 12 31l897 1212q3 3 1.5 6.5t-5.5 3.5h-727
q-10 0 -16.5 7t-4.5 18l6 47q0 10 8 17.5t19 7.5h829q10 0 16.5 -7t4.5 -18l-6 -59q-4 -20 -13 -31l-894 -1213q-4 -3 -2.5 -6.5t6.5 -3.5h725q23 0 20 -24l-6 -47q0 -10 -8 -17.5t-19 -7.5h-829z" />
    <glyph glyph-name="zcaron" unicode="&#x17e;" horiz-adv-x="878" 
d="M502 1180q-17 0 -25 14l-129 213q-7 12 -2 21.5t19 9.5h41q17 0 26 -15l109 -176q1 -3 6 -3t6 3l149 176q15 15 31 15h39q15 0 18 -9.5t-8 -21.5l-182 -213q-14 -14 -31 -14h-67zM55 0q-10 0 -16 7t-4 18l8 59q0 15 12 31l690 807q3 3 1.5 6.5t-5.5 3.5h-563
q-23 0 -20 24l6 52q3 24 26 24h676q11 0 16.5 -7t4.5 -17l-8 -60q0 -13 -13 -30l-696 -807q-3 -3 -1.5 -7t5.5 -4h576q23 0 20 -24l-6 -51q-4 -25 -27 -25h-682z" />
    <glyph glyph-name="florin" unicode="&#x192;" horiz-adv-x="1083" 
d="M666 1098q29 104 62 166.5t85 101t119.5 52.5t173.5 16q24 0 20 -25l-6 -47q-4 -25 -26 -25h-56q-119 0 -176.5 -57t-93.5 -186l-76 -283q-4 -8 4 -8h189q10 0 16 -7t4 -18l-6 -51q-4 -25 -27 -25h-204q-11 0 -11 -8l-211 -768q-29 -104 -62 -167t-86 -101t-119.5 -52
t-172.5 -16q-22 0 -22 25l6 47q1 10 9 17.5t17 7.5h58q117 0 174.5 56.5t95.5 186.5l211 764q0 8 -6 8h-152q-9 0 -15 7.5t-5 17.5l6 51q1 10 9.5 17.5t17.5 7.5h165q11 0 11 8z" />
    <glyph glyph-name="uni01CD" unicode="&#x1cd;" horiz-adv-x="1171" 
d="M795 1561q-12 -15 -29 -15h-68q-14 0 -26 15l-129 213q-6 12 -1.5 21t19.5 9h39q21 0 29 -14l108 -176q0 -3 4.5 -3t6.5 3l151 176q14 14 29 14h41q15 0 18 -9t-8 -21zM975 0q-20 0 -23 20l-53 269q0 6 -6 6h-621q-6 0 -8 -6l-117 -269q-10 -20 -28 -20h-64q-12 0 -17 8
t1 21l612 1384q7 21 27 21h86q18 0 22 -21l275 -1384q3 -13 -4.5 -21t-20.5 -8h-61zM309 395q-2 -3 0 -6.5t6 -3.5h557q4 0 7.5 3.5t1.5 6.5l-172 897q0 4 -5 4t-8 -4z" />
    <glyph glyph-name="uni01CE" unicode="&#x1ce;" 
d="M696 1159q-11 -14 -28 -14h-68q-19 0 -27 14l-129 213q-8 12 -2 21.5t21 9.5h39q20 0 28 -14l107 -177q1 -3 6 -3t6 3l152 177q11 14 28 14h41q13 0 16.5 -9.5t-5.5 -21.5zM872 1008q2 11 9.5 17.5t17.5 6.5h57q23 0 23 -24l-121 -983q-1 -10 -9.5 -17.5t-19.5 -7.5h-57
q-9 0 -15 7.5t-5 17.5l12 92q0 5 -3.5 6.5t-6.5 -2.5q-52 -65 -125 -101t-158 -36q-136 0 -219.5 73.5t-101.5 198.5q-12 81 8 258q24 183 53 258q47 127 150.5 202t240.5 75q85 0 148.5 -36t99.5 -102q3 -4 6.5 -2.5t5.5 6.5zM758 272q19 38 30.5 87t24.5 155
q13 110 13.5 163.5t-9.5 86.5q-9 83 -66 135.5t-149 52.5q-94 0 -168.5 -52t-107.5 -134q-22 -44 -36 -93.5t-26 -156.5q-20 -164 -4 -244q11 -87 74 -139.5t160 -52.5q94 0 163 53t101 139z" />
    <glyph glyph-name="uni0218" unicode="&#x218;" horiz-adv-x="1159" 
d="M549 -16q-216 0 -329 101t-93 271l8 64q2 11 9.5 17.5t17.5 6.5h53q11 0 16.5 -7t4.5 -17l-7 -58q-15 -126 76.5 -204t263.5 -78q165 0 260.5 71t110.5 195q13 111 -61.5 184t-278.5 166q-75 34 -111 52t-90 48.5t-78 57t-49.5 64t-32 82t0.5 100.5q22 168 145 259
t322 91q218 0 327.5 -102t87.5 -275l-4 -43q-1 -10 -9 -17t-17 -7h-58q-22 0 -22 24l6 37q15 128 -70.5 207.5t-259.5 79.5q-151 0 -240 -64.5t-104 -185.5q-7 -62 6.5 -105.5t63.5 -82t99 -63.5t155 -71q82 -36 138 -66t109 -69.5t82.5 -81t43.5 -96t6 -119.5
q-21 -165 -152 -265.5t-346 -100.5zM387 -401q-12 0 -15.5 8t3.5 20l145 219q10 17 31 17h53q14 0 17.5 -7.5t-5.5 -21.5l-153 -219q-8 -16 -29 -16h-47z" />
    <glyph glyph-name="uni0219" unicode="&#x219;" horiz-adv-x="950" 
d="M444 -10q-161 0 -253 77.5t-78 190.5l4 23q0 10 7.5 17t18.5 7h56q23 0 20 -20l-2 -23q-9 -75 57 -129.5t179 -54.5q112 0 188.5 54.5t87.5 137.5q4 34 -7.5 62t-29.5 46t-53 35.5t-63.5 27.5t-74.5 25q-11 3 -16 5q-45 15 -70 23.5t-64.5 25.5t-61.5 31t-48.5 37
t-38.5 47.5t-18.5 58t-1.5 72.5q15 125 120.5 199.5t262.5 74.5q159 0 247.5 -76.5t74.5 -195.5v-2q-4 -25 -27 -25h-53q-11 0 -17.5 4.5t-5.5 10.5l2 12q9 77 -54.5 129.5t-180.5 52.5q-110 0 -184 -48.5t-84 -129.5q-3 -33 8 -60.5t29 -46t54 -36t65 -28t79 -26.5
q146 -46 202 -79q132 -77 114 -220q-15 -128 -122.5 -207t-267.5 -79zM295 -395q-13 0 -16.5 8t4.5 20l143 220q13 16 33 16h53q14 0 17.5 -7.5t-5.5 -21.5l-153 -219q-11 -16 -31 -16h-45z" />
    <glyph glyph-name="uni021A" unicode="&#x21a;" horiz-adv-x="1130" 
d="M227 1409q4 25 27 25h887q22 0 22 -25l-6 -47q-1 -10 -9.5 -17.5t-17.5 -7.5h-393q-10 0 -10 -8l-160 -1304q-4 -25 -26 -25h-58q-10 0 -16 7t-4 18l160 1304q0 8 -9 8h-372q-10 0 -16.5 7t-4.5 18zM303 -385q-13 0 -16.5 8.5t4.5 20.5l143 219q10 16 31 16h55
q13 0 16.5 -7.5t-4.5 -21.5l-153 -219q-11 -16 -31 -16h-45z" />
    <glyph glyph-name="uni021B" unicode="&#x21b;" horiz-adv-x="712" 
d="M670 965q-1 -10 -9.5 -17.5t-19.5 -7.5h-227q-7 0 -11 -8l-77 -645q-13 -104 28.5 -146.5t141.5 -42.5h41q23 0 20 -24l-6 -47q-4 -25 -27 -25q-9 0 -27.5 -1t-27.5 -1q-67 0 -114 11.5t-82.5 39t-49 79.5t-4.5 128l82 674q0 8 -6 8h-117q-9 0 -15 7.5t-5 17.5l6 43
q3 24 26 24h115q6 0 10 8l27 230q1 10 9.5 17t17.5 7h57q9 0 15 -7t5 -17l-28 -230q0 -8 6 -8h229q11 0 16.5 -7t4.5 -17zM264 -403q-13 0 -16.5 8t4.5 20l143 219q14 17 33 17h53q14 0 18 -7.5t-5 -21.5l-154 -219q-11 -16 -31 -16h-45z" />
    <glyph glyph-name="uni0228" unicode="&#x228;" horiz-adv-x="1214" 
d="M1217 1362q-1 -10 -9.5 -17.5t-17.5 -7.5h-750q-8 0 -8 -8l-70 -553q0 -8 9 -8h530q10 0 16.5 -7t4.5 -18l-7 -47q-3 -24 -26 -24h-531q-8 0 -8 -8l-69 -560q0 -8 8 -8h747q11 0 16.5 -7t4.5 -17l-4 -47q-1 -10 -9.5 -17.5t-17.5 -7.5h-364q-5 0 -7.5 -3t0.5 -7
q115 -112 70 -234q-20 -57 -65.5 -88t-92.5 -32t-94 6q-20 6 -14 28l6 23q10 24 33 18q52 -11 93.5 6t57.5 68q31 103 -84 211q-2 4 -8 4h-371q-10 0 -16 7t-4 18l170 1384q4 25 26 25h838q10 0 16.5 -7t6.5 -18z" />
    <glyph glyph-name="uni0229" unicode="&#x229;" horiz-adv-x="1054" 
d="M510 78q97 1 173 46.5t118 121.5q15 21 33 12l34 -14q23 -12 11 -33q-51 -93 -139 -153t-199 -70q-15 -4 -4 -11q114 -117 71 -237q-20 -58 -65.5 -88.5t-93 -32t-95.5 5.5q-17 6 -14 29l8 22q11 25 31 19q119 -25 153 74q18 55 -8 110.5t-80 102.5q-2 4 -8 4
q-113 13 -184 81.5t-92 176.5q-17 89 6 274q7 69 11.5 102.5t13 73.5t20.5 70q48 130 155.5 207.5t249.5 77.5q159 0 246.5 -86t93.5 -236q7 -62 -12 -219q-3 -27 -26 -27h-646q-7 0 -10 -8q-15 -126 -10 -176q8 -99 76.5 -159t181.5 -60zM309 739q-16 -42 -33 -161
q-3 -9 7 -9h555q8 0 8 9q12 97 8 155q-8 98 -74.5 158.5t-173.5 60.5q-108 0 -186.5 -58.5t-110.5 -154.5z" />
    <glyph glyph-name="circumflex" unicode="&#x2c6;" horiz-adv-x="485" 
d="M139 1167q-15 0 -18 9.5t8 21.5l184 213q14 14 33 14h62q17 0 28 -14l133 -213q8 -12 2.5 -21.5t-20.5 -9.5h-43q-16 0 -25 15l-106 176q0 3 -4.5 3t-7.5 -3l-150 -176q-15 -15 -33 -15h-43z" />
    <glyph glyph-name="caron" unicode="&#x2c7;" horiz-adv-x="606" 
d="M371 1165q-16 0 -25 15l-129 213q-7 12 -2.5 21t18.5 9h41q18 0 29 -14l107 -176q2 -3 6 -3t6 3l149 176q14 14 31 14h39q15 0 18 -9t-8 -21l-182 -213q-15 -15 -31 -15h-67z" />
    <glyph glyph-name="uni02C9" unicode="&#x2c9;" horiz-adv-x="520" 
d="M135 1225q-22 0 -22 24l4 33q2 11 10 18t18 7h471q10 0 16.5 -7t6.5 -18l-4 -33q-1 -10 -9.5 -17t-17.5 -7h-473z" />
    <glyph glyph-name="breve" unicode="&#x2d8;" horiz-adv-x="546" 
d="M373 1147q-80 0 -132 53.5t-51 132.5q0 25 25 25h21q25 0 22 -25q3 -53 37.5 -87t85.5 -34q53 0 97 34.5t57 86.5q6 25 28 25h23q23 0 20 -25q-21 -79 -86.5 -132.5t-146.5 -53.5z" />
    <glyph glyph-name="dotaccent" unicode="&#x2d9;" horiz-adv-x="282" 
d="M254 1210q-35 0 -55.5 22.5t-16.5 57.5q5 34 30 56t60 22q33 0 52 -22t16 -56q-4 -35 -28.5 -57.5t-57.5 -22.5z" />
    <glyph glyph-name="ring" unicode="&#x2da;" horiz-adv-x="532" 
d="M371 1169q-86 0 -137.5 60t-40.5 147q10 86 76 145.5t151 59.5q86 0 138.5 -59.5t41.5 -145.5q-10 -86 -77 -146.5t-152 -60.5zM379 1235q56 0 102.5 41t53.5 100t-29 100.5t-92 41.5q-57 0 -103 -41t-53 -101t28.5 -100.5t92.5 -40.5z" />
    <glyph glyph-name="ogonek" unicode="&#x2db;" horiz-adv-x="264" 
d="M178 -342q0 -24 -22 -29q-34 -9 -71.5 -7t-69.5 11.5t-55.5 38t-27.5 72.5q-10 131 142 246q15 10 30 10h23q17 0 19 -9t-13 -20q-125 -105 -117 -198q3 -51 40.5 -68t93.5 -6q21 5 28 -18v-23z" />
    <glyph glyph-name="tilde" unicode="&#x2dc;" horiz-adv-x="675" 
d="M553 1221q-51 0 -113 49q-26 23 -44 33t-42 10q-32 0 -55 -11t-51 -42q-18 -21 -35 -7l-16 13q-18 15 -2 34q68 95 163 95q23 0 45.5 -8.5t32.5 -15t35 -23.5q3 -2 14 -10t15.5 -11t14.5 -9t16.5 -8.5t16 -4.5t17.5 -2q60 0 105 59q20 20 35 8l16 -12q20 -16 -4 -45
q-35 -47 -79.5 -69.5t-84.5 -22.5z" />
    <glyph glyph-name="hungarumlaut" unicode="&#x2dd;" horiz-adv-x="692" 
d="M201 1200q-13 0 -17 8.5t4 20.5l142 219q13 16 32 16h54q14 0 17.5 -7t-5.5 -21l-152 -219q-11 -17 -30 -17h-45zM520 1200q-12 0 -15.5 8.5t3.5 20.5l143 219q10 16 31 16h53q14 0 18 -7t-5 -21l-152 -219q-8 -17 -29 -17h-47z" />
    <glyph glyph-name="gravecomb" unicode="&#x300;" horiz-adv-x="0" 
d="M94 1212q5 -12 -1 -20t-19 -8h-45q-19 0 -27 16l-100 219q-4 13 1 21t19 8h53q19 0 29 -16z" />
    <glyph glyph-name="acutecomb" unicode="&#x301;" horiz-adv-x="0" 
d="M-229 1184q-13 0 -17 8t4 20l144 220q13 16 32 16h54q14 0 17.5 -8t-5.5 -21l-154 -219q-11 -16 -30 -16h-45z" />
    <glyph glyph-name="uni0302" unicode="&#x302;" horiz-adv-x="0" 
d="M-346 1167q-15 0 -18 9.5t8 21.5l184 213q14 14 33 14h61q18 0 29 -14l133 -213q8 -12 2.5 -21.5t-20.5 -9.5h-43q-16 0 -25 15l-107 176q0 3 -4.5 3t-7.5 -3l-149 -176q-15 -15 -33 -15h-43z" />
    <glyph glyph-name="tildecomb" unicode="&#x303;" horiz-adv-x="0" 
d="M-66 1221q-50 0 -112 49q-26 23 -44 33t-42 10q-32 0 -55.5 -11t-51.5 -42q-20 -20 -35 -7l-16 13q-17 14 -4 34q71 95 166 95q23 0 45.5 -8.5t32.5 -15t35 -23.5q3 -2 14 -10t15.5 -11t14.5 -9t16.5 -8.5t16 -4.5t17.5 -2q59 0 104 59q18 22 35 8l16 -12q20 -16 -4 -45
q-35 -47 -79.5 -69.5t-84.5 -22.5z" />
    <glyph glyph-name="uni0304" unicode="&#x304;" horiz-adv-x="0" 
d="M-385 1225q-23 0 -23 24l5 33q2 11 10 18t18 7h471q10 0 16.5 -7t6.5 -18l-4 -33q-1 -10 -9.5 -17t-17.5 -7h-473z" />
    <glyph glyph-name="uni0306" unicode="&#x306;" horiz-adv-x="0" 
d="M-178 1114q-79 0 -131.5 53t-50.5 133q0 25 24 25h21q25 0 22 -25q3 -53 37.5 -86.5t85.5 -33.5q53 0 97 34t57 86q6 25 28 25h23q23 0 20 -25q-20 -80 -86 -133t-147 -53z" />
    <glyph glyph-name="uni0307" unicode="&#x307;" horiz-adv-x="0" 
d="M33 1210q-35 0 -55.5 22.5t-16.5 57.5q5 34 30 56t60 22q33 0 52 -22t16 -56q-4 -35 -28.5 -57.5t-57.5 -22.5z" />
    <glyph glyph-name="uni0308" unicode="&#x308;" horiz-adv-x="0" 
d="M-291 1243q-36 0 -57 24t-17 60q5 34 32.5 58t62.5 24t54.5 -23.5t16.5 -58.5q-4 -37 -30.5 -60.5t-61.5 -23.5zM33 1243q-37 0 -58.5 23.5t-17.5 60.5q5 34 32.5 58t63.5 24q34 0 54.5 -24t15.5 -58q-4 -36 -30 -60t-60 -24z" />
    <glyph glyph-name="uni030A" unicode="&#x30a;" horiz-adv-x="0" 
d="M-96 1169q-86 0 -137.5 60t-40.5 147q10 86 76 145.5t151 59.5q86 0 138.5 -59.5t41.5 -145.5q-10 -86 -77 -146.5t-152 -60.5zM-88 1235q56 0 102.5 41t53.5 100t-29 100.5t-92 41.5q-57 0 -103 -41t-53 -101t28.5 -100.5t92.5 -40.5z" />
    <glyph glyph-name="uni030B" unicode="&#x30b;" horiz-adv-x="0" 
d="M-479 1180q-13 0 -17 8t4 20l138 217q13 19 30 19h52q13 0 16.5 -8.5t-4.5 -20.5l-146 -219q-13 -16 -32 -16h-41zM-166 1180q-13 0 -16.5 8t4.5 20l143 219q10 17 31 17h47q13 0 16.5 -8.5t-4.5 -20.5l-145 -219q-13 -16 -33 -16h-43z" />
    <glyph glyph-name="uni030C" unicode="&#x30c;" horiz-adv-x="0" 
d="M-238 1149q-16 0 -24 14l-129 213q-7 12 -2.5 21.5t18.5 9.5h41q18 0 29 -14l106 -176q1 -3 6 -3t7 3l149 176q14 14 31 14h39q15 0 18 -9.5t-8 -21.5l-182 -213q-14 -14 -31 -14h-68z" />
    <glyph glyph-name="uni0312" unicode="&#x312;" horiz-adv-x="0" 
d="M41 1417q13 0 16.5 -8t-4.5 -20l-143 -220q-13 -16 -33 -16h-53q-13 0 -16.5 7.5t4.5 21.5l153 219q11 16 31 16h45z" />
    <glyph glyph-name="uni0313" unicode="&#x313;" horiz-adv-x="0" 
d="M-113 1184q-13 0 -16.5 8t4.5 20l143 220q13 16 33 16h53q14 0 18 -8t-5 -21l-154 -219q-11 -16 -31 -16h-45z" />
    <glyph glyph-name="uni0326" unicode="&#x326;" horiz-adv-x="0" 
d="M-369 -385q-13 0 -16.5 8.5t4.5 20.5l143 219q13 16 33 16h53q14 0 18 -7.5t-5 -21.5l-154 -219q-11 -16 -31 -16h-45z" />
    <glyph glyph-name="uni0327" unicode="&#x327;" horiz-adv-x="0" 
d="M-328 -371q-20 7 -14 29l6 23q10 24 33 18q52 -11 93.5 6t57.5 68q30 94 -67 198q-12 11 -9.5 20t17.5 9h27q16 0 26 -10q127 -116 82 -246q-19 -58 -64 -88.5t-93 -32t-95 5.5z" />
    <glyph glyph-name="uni0328" unicode="&#x328;" horiz-adv-x="0" 
d="M-86 -342q0 -23 -23 -29q-34 -9 -71.5 -7t-69.5 11.5t-55 38t-27 72.5q-10 131 142 246q15 10 30 10h23q17 0 19 -9t-13 -20q-125 -105 -117 -198q3 -51 40 -68t93 -6q22 6 29 -18v-23z" />
    <glyph glyph-name="uni0335" unicode="&#x335;" horiz-adv-x="0" 
d="M-500 1233q0 10 8 17t19 7h563q11 0 16.5 -7t4.5 -17l-2 -29q-1 -10 -9.5 -17t-19.5 -7h-563q-11 0 -16.5 7t-4.5 17z" />
    <glyph glyph-name="uni0336" unicode="&#x336;" horiz-adv-x="0" 
d="M-1040 1059q-11 0 -16.5 7t-4.5 17l4 35q0 10 8 17.5t19 7.5h1106q10 0 16 -7t4 -18l-4 -35q-3 -24 -26 -24h-1106z" />
    <glyph glyph-name="uni0337" unicode="&#x337;" horiz-adv-x="0" 
d="M-778 119q-18 -15 -31 4l-20 31q-12 18 8 34l932 643q9 7 18 6t14 -10l23 -32q10 -18 -10 -35z" />
    <glyph glyph-name="uni0338" unicode="&#x338;" horiz-adv-x="0" 
d="M-817 -74q-30 0 -14 29l878 1548q11 19 31 19h39q30 0 14 -29l-879 -1548q-11 -19 -30 -19h-39z" />
    <glyph glyph-name="uni0394" unicode="&#x394;" horiz-adv-x="1255" 
d="M51 0q-10 0 -16 7t-4 18l6 55q4 18 10 31l664 1304q6 19 28 19h49q22 0 25 -19l342 -1306q4 -22 2 -31l-6 -53q-4 -25 -27 -25h-1073zM147 106q-2 -3 0.5 -6.5t6.5 -3.5h893q8 0 8 10l-303 1176q-2 6 -6 6t-7 -6z" />
    <glyph glyph-name="uni03A9" unicode="&#x3a9;" horiz-adv-x="1277" 
d="M141 0q-10 0 -16 7t-4 18l6 47q0 10 8 17t19 7h180q4 0 5.5 1.5t0.5 4t-4 4.5q-81 55 -118.5 150.5t-22.5 218.5l63 510q26 209 168.5 337t349.5 128t319.5 -128t86.5 -337l-64 -510q-15 -123 -75.5 -218.5t-155.5 -150.5q-3 -2 -4 -4.5t0.5 -4t5.5 -1.5h180
q11 0 16.5 -7t4.5 -17l-7 -47q-4 -25 -26 -25h-346q-10 0 -16.5 7t-4.5 18l6 51q3 20 25 26q101 23 188 122.5t103 236.5l65 526q20 166 -66 266.5t-247 100.5q-160 0 -269.5 -100.5t-129.5 -266.5l-66 -526q-18 -137 43.5 -236t153.5 -123q21 -7 18 -26l-6 -51
q-4 -25 -27 -25h-340z" />
    <glyph glyph-name="uni03BC" unicode="&#x3bc;" horiz-adv-x="1081" 
d="M887 1008q3 24 26 24h56q23 0 20 -24l-121 -983q0 -10 -7.5 -17.5t-18.5 -7.5h-56q-10 0 -16 7t-4 18l12 96q0 6 -3.5 7t-6.5 -5q-103 -137 -295 -137q-135 0 -217 73q-10 7 -10 -4l-56 -440q-4 -25 -26 -25h-58q-10 0 -16 7t-4 18l170 1393q1 10 9.5 17t19.5 7h57
q9 0 15 -7t5 -17l-86 -695q-2 -106 59.5 -168.5t168.5 -62.5q123 0 205.5 74t97.5 196z" />
    <glyph glyph-name="pi" unicode="&#x3c0;" horiz-adv-x="1273" 
d="M1270 963q-4 -25 -27 -25h-145q-8 0 -8 -8l-78 -639q-13 -111 10 -150.5t94 -42.5q24 0 21 -24l-4 -47q-4 -25 -29 -25q-54 2 -90 11.5t-68 34.5t-43.5 76t-1.5 128l84 678q0 8 -8 8h-512q-8 0 -8 -8l-113 -905q-4 -25 -27 -25h-57q-10 0 -16 7t-4 18l110 905q0 8 -6 8
h-162q-10 0 -16 7t-4 18l6 45q2 11 9.5 17.5t17.5 6.5h1060q11 0 16.5 -7t4.5 -17z" />
    <glyph glyph-name="Wgrave" unicode="&#x1e80;" horiz-adv-x="1738" 
d="M1053 1614q5 -12 -1.5 -20.5t-19.5 -8.5h-45q-17 0 -26 17l-99 219q-12 28 19 28h53q19 0 29 -16zM430 0q-24 0 -27 20l-215 1387q-3 27 23 27h61q24 0 27 -21l182 -1190q0 -3 1.5 -4t3.5 0t3 4l449 1190q9 21 31 21h63q22 0 25 -21l168 -1190q1 -5 5 -5t5 5l477 1190
q7 21 29 21h57q28 0 19 -27l-557 -1387q-7 -20 -31 -20h-62q-21 0 -24 20l-162 1213q0 3 -1 4t-3 0t-4 -4l-457 -1213q-6 -20 -29 -20h-57z" />
    <glyph glyph-name="wgrave" unicode="&#x1e81;" horiz-adv-x="1400" 
d="M829 1212q5 -12 0 -20t-18 -8h-45q-22 0 -27 16l-100 219q-6 13 0 21t20 8h54q20 0 26 -16zM336 0q-22 0 -25 20l-155 984q-2 12 4 20t18 8h58q23 0 26 -20l121 -852q1 -4 5 -4t5 4l334 852q7 20 29 20h57q22 0 25 -20l125 -850q1 -4 6 -4t6 4l334 850q9 20 30 20l58 -2
q11 0 15.5 -7t0.5 -19l-401 -984q-10 -20 -29 -20h-61q-22 0 -25 20l-131 816q-2 4 -5.5 4t-6.5 -4l-326 -816q-10 -20 -31 -20h-61z" />
    <glyph glyph-name="Wacute" unicode="&#x1e82;" horiz-adv-x="1738" 
d="M971 1585q-12 0 -16 8.5t3 20.5l146 219q10 16 31 16h53q14 0 17.5 -7.5t-5.5 -20.5l-153 -219q-9 -17 -29 -17h-47zM430 0q-24 0 -27 20l-215 1387q-3 27 23 27h61q24 0 27 -21l182 -1190q0 -3 1.5 -4t3.5 0t3 4l449 1190q9 21 31 21h63q22 0 25 -21l168 -1190
q1 -5 5 -5t5 5l477 1190q7 21 29 21h57q28 0 19 -27l-557 -1387q-7 -20 -31 -20h-62q-21 0 -24 20l-162 1213q0 3 -1 4t-3 0t-4 -4l-457 -1213q-6 -20 -29 -20h-57z" />
    <glyph glyph-name="wacute" unicode="&#x1e83;" horiz-adv-x="1400" 
d="M750 1184q-13 0 -17 8t4 20l144 220q13 16 32 16h54q14 0 17.5 -8t-5.5 -21l-154 -219q-11 -16 -30 -16h-45zM336 0q-22 0 -25 20l-155 984q-2 12 4 20t18 8h58q23 0 26 -20l121 -852q1 -4 5 -4t5 4l334 852q7 20 29 20h57q22 0 25 -20l125 -850q1 -4 6 -4t6 4l334 850
q9 20 30 20l58 -2q11 0 15.5 -7t0.5 -19l-401 -984q-10 -20 -29 -20h-61q-22 0 -25 20l-131 816q-2 4 -5.5 4t-6.5 -4l-326 -816q-10 -20 -31 -20h-61z" />
    <glyph glyph-name="Wdieresis" unicode="&#x1e84;" horiz-adv-x="1738" 
d="M868 1645q-37 0 -57.5 23.5t-15.5 60.5q5 34 31 57.5t61 23.5q36 0 56 -23.5t15 -57.5q-5 -37 -30 -60.5t-60 -23.5zM1192 1645q-38 0 -59.5 23.5t-16.5 60.5q5 34 31.5 57.5t64.5 23.5q34 0 53.5 -23.5t14.5 -57.5q-3 -36 -28.5 -60t-59.5 -24zM430 0q-24 0 -27 20
l-215 1387q-3 27 23 27h61q24 0 27 -21l182 -1190q0 -3 1.5 -4t3.5 0t3 4l449 1190q9 21 31 21h63q22 0 25 -21l168 -1190q1 -5 5 -5t5 5l477 1190q7 21 29 21h57q28 0 19 -27l-557 -1387q-7 -20 -31 -20h-62q-21 0 -24 20l-162 1213q0 3 -1 4t-3 0t-4 -4l-457 -1213
q-6 -20 -29 -20h-57z" />
    <glyph glyph-name="wdieresis" unicode="&#x1e85;" horiz-adv-x="1400" 
d="M645 1243q-36 0 -57 24t-17 60q5 34 32.5 58t62.5 24t55.5 -24t15.5 -58q-4 -37 -30.5 -60.5t-61.5 -23.5zM969 1243q-37 0 -57.5 23.5t-16.5 60.5q3 34 30 58t64 24q34 0 54.5 -24t15.5 -58q-5 -37 -30 -60.5t-60 -23.5zM336 0q-22 0 -25 20l-155 984q-2 12 4 20t18 8
h58q23 0 26 -20l121 -852q1 -4 5 -4t5 4l334 852q7 20 29 20h57q22 0 25 -20l125 -850q1 -4 6 -4t6 4l334 850q9 20 30 20l58 -2q11 0 15.5 -7t0.5 -19l-401 -984q-10 -20 -29 -20h-61q-22 0 -25 20l-131 816q-2 4 -5.5 4t-6.5 -4l-326 -816q-10 -20 -31 -20h-61z" />
    <glyph glyph-name="Ygrave" unicode="&#x1ef2;" horiz-adv-x="1099" 
d="M737 1612q7 -29 -20 -29h-45q-22 0 -27 16l-100 220q-6 13 0 20.5t20 7.5h53q21 0 27 -16zM483 0q-10 0 -16 7t-4 18l76 626v11l-322 743q-6 13 0.5 21t20.5 8h57q19 0 29 -17l276 -641q2 -3 6 -3t6 3l435 641q10 17 30 17h58q14 0 18.5 -8t-4.5 -21l-504 -743
q-2 -2 -2 -11l-78 -626q-4 -25 -26 -25h-56z" />
    <glyph glyph-name="ygrave" unicode="&#x1ef3;" horiz-adv-x="892" 
d="M584 1217q5 -12 -0.5 -20.5t-18.5 -8.5h-45q-21 0 -26 16l-101 219q-6 13 0.5 21t20.5 8h53q21 0 27 -16zM27 -410q-6 0 -9 7.5t-2 17.5l7 45q4 25 16 25h14q47 1 79 9.5t59 26t53 56.5t50 86.5t60 130.5q5 9 2 12l-215 998q-3 13 4.5 20.5t18.5 7.5h59q22 0 25 -20
l176 -854q2 -4 6 -4t6 4l377 854q10 20 29 20h61q13 0 17.5 -7t-0.5 -21l-510 -1108q-61 -133 -109.5 -196t-105.5 -86.5t-154 -23.5h-14z" />
    <glyph glyph-name="endash" unicode="&#x2013;" horiz-adv-x="882" 
d="M133 528q-22 0 -22 25l6 49q2 11 10 18t18 7h666q10 0 16.5 -7t6.5 -18l-7 -49q-1 -10 -9 -17.5t-17 -7.5h-668z" />
    <glyph glyph-name="emdash" unicode="&#x2014;" horiz-adv-x="1374" 
d="M133 530q-10 0 -16 7t-4 18l4 47q2 11 10 18t18 7h1162q10 0 16 -7t4 -18l-6 -47q-4 -25 -27 -25h-1161z" />
    <glyph glyph-name="quoteleft" unicode="&#x2018;" horiz-adv-x="245" 
d="M117 1026q-13 0 -17 8.5t2 20.5l183 360q9 19 30 19h39q12 0 16.5 -8t-1.5 -21l-162 -358q-11 -21 -29 -21h-61z" />
    <glyph glyph-name="quoteright" unicode="&#x2019;" horiz-adv-x="245" 
d="M352 1434q13 0 17 -8.5t-2 -20.5l-183 -361q-9 -18 -30 -18h-39q-12 0 -16.5 8t1.5 21l162 358q10 21 29 21h61z" />
    <glyph glyph-name="quotesinglbase" unicode="&#x201a;" horiz-adv-x="1191" 
d="M113 -152q-28 0 -19 27l144 418q3 22 26 22h49q28 0 19 -26l-158 -420q-9 -21 -31 -21h-30z" />
    <glyph glyph-name="quotedblleft" unicode="&#x201c;" horiz-adv-x="481" 
d="M117 1026q-30 0 -17 29l179 360q9 19 30 19h37q12 0 17 -8t-1 -21l-157 -358q-11 -21 -29 -21h-59zM358 1026q-29 0 -16 29l180 360q6 19 29 19h39q11 0 16 -8t0 -21l-160 -358q-10 -21 -28 -21h-60z" />
    <glyph glyph-name="quotedblright" unicode="&#x201d;" horiz-adv-x="481" 
d="M344 1434q29 0 16 -29l-178 -361q-9 -18 -30 -18h-37q-12 0 -17.5 8t0.5 21l158 358q10 21 29 21h59zM588 1434q12 0 17 -8t-1 -21l-180 -361q-9 -18 -31 -18h-37q-12 0 -17 8t1 21l160 358q7 21 28 21h60z" />
    <glyph glyph-name="quotedblbase" unicode="&#x201e;" horiz-adv-x="491" 
d="M201 260q29 0 16 -29l-180 -360q-6 -18 -29 -18h-39q-11 0 -16 7.5t0 20.5l160 359q10 20 28 20h60zM442 260q30 0 17 -29l-178 -360q-9 -18 -31 -18h-37q-28 0 -16 28l157 359q10 20 29 20h59z" />
    <glyph glyph-name="dagger" unicode="&#x2020;" horiz-adv-x="837" 
d="M807 938q10 0 16 -7t4 -18l-4 -41q-1 -10 -9 -17t-19 -7h-252q-8 0 -8 -8l-152 -1225q0 -10 -8 -17.5t-19 -7.5h-57q-10 0 -16 7t-4 18l149 1225q1 3 -1 5.5t-5 2.5h-250q-23 0 -20 24l4 41q4 25 26 25h250q10 0 10 8l58 463q0 10 7.5 17.5t18.5 7.5h58q10 0 16 -7t4 -18
l-57 -463q0 -8 8 -8h252z" />
    <glyph glyph-name="daggerdbl" unicode="&#x2021;" horiz-adv-x="837" 
d="M823 872q-1 -10 -9 -17t-19 -7h-252q-8 0 -8 -8l-80 -656q-1 -3 1 -5.5t5 -2.5h252q23 0 20 -24l-4 -41q-4 -25 -27 -25h-251q-11 0 -11 -8l-57 -463q0 -10 -8 -17.5t-19 -7.5h-57q-10 0 -16 7t-4 18l57 463q0 8 -8 8h-250q-10 0 -16.5 7t-4.5 18l4 41q1 10 9.5 17
t19.5 7h250q8 0 8 8l80 656q1 3 -1 5.5t-5 2.5h-250q-23 0 -20 24l4 41q4 25 26 25h250q10 0 10 8l58 463q0 10 7.5 17.5t18.5 7.5h58q10 0 16 -7t4 -18l-57 -463q0 -8 8 -8h252q10 0 16 -7t4 -18z" />
    <glyph glyph-name="bullet" unicode="&#x2022;" horiz-adv-x="610" 
d="M305 313q-92 0 -149 68t-45 162q10 95 83 161t166 66q90 0 147.5 -66.5t45.5 -160.5q-10 -93 -84 -161.5t-164 -68.5z" />
    <glyph glyph-name="ellipsis" unicode="&#x2026;" horiz-adv-x="1542" 
d="M229 8q-45 0 -72 32t-22 77q6 44 42.5 75t78.5 31q43 0 71.5 -31t24.5 -75q-6 -44 -42.5 -76.5t-80.5 -32.5zM731 8q-45 0 -71.5 32t-20.5 77q4 43 40.5 74.5t78.5 31.5q44 0 73 -31t23 -75q-5 -44 -41 -76.5t-82 -32.5zM1225 8q-45 0 -72.5 32t-22.5 77q6 44 42.5 75
t78.5 31q43 0 72 -31t25 -75q-6 -44 -42.5 -76.5t-80.5 -32.5z" />
    <glyph glyph-name="perthousand" unicode="&#x2030;" horiz-adv-x="2244" 
d="M348 567q-114 0 -173 67t-46 181l49 389q13 112 89 179t190 67q113 0 173.5 -67t47.5 -179l-47 -389q-13 -113 -90.5 -180.5t-192.5 -67.5zM338 0q-14 0 -17.5 8t5.5 21l1026 1388q14 17 30 17h35q14 0 18 -8t-5 -21l-1027 -1389q-13 -16 -30 -16h-35zM356 641
q78 0 132 46t63 122l49 401q9 75 -33.5 121.5t-120.5 46.5q-75 0 -127 -46.5t-61 -121.5l-49 -401q-9 -76 31.5 -122t115.5 -46zM1270 -16q-114 0 -173 66.5t-46 180.5l49 390q13 112 88.5 178.5t189.5 66.5q113 0 173.5 -66.5t47.5 -178.5l-47 -390q-13 -113 -90 -180
t-192 -67zM1894 -16q-113 0 -171.5 66.5t-45.5 180.5l47 390q13 112 89.5 178.5t189.5 66.5q114 0 175 -66.5t48 -178.5l-49 -390q-13 -113 -90.5 -180t-192.5 -67zM1278 57q78 0 132 46t63 122l49 402q9 75 -33.5 121.5t-120.5 46.5q-75 0 -127 -46.5t-61 -121.5l-50 -402
q-9 -76 32 -122t116 -46zM1905 57q77 0 130 46t62 122l49 402q9 75 -33 121.5t-118 46.5q-75 0 -128.5 -46.5t-62.5 -121.5l-49 -402q-9 -76 32 -122t118 -46z" />
    <glyph glyph-name="guilsinglleft" unicode="&#x2039;" horiz-adv-x="735" 
d="M500 250q8 -12 2 -21.5t-21 -9.5h-53q-18 0 -29 14l-217 326q-11 18 4 33l297 326q14 14 33 14h53q15 0 18.5 -9.5t-7.5 -21.5l-297 -319q-6 -6 -2 -13z" />
    <glyph glyph-name="guilsinglright" unicode="&#x203a;" horiz-adv-x="794" 
d="M227 219q-15 0 -18 9.5t8 21.5l297 319q6 6 2 13l-219 319q-8 12 -2.5 21.5t20.5 9.5h54q17 0 28 -14l217 -326q13 -16 -4 -33l-297 -326q-14 -14 -32 -14h-54z" />
    <glyph glyph-name="fraction" unicode="&#x2044;" horiz-adv-x="475" 
d="M-246 0q-14 0 -17.5 8t5.5 21l1026 1388q14 17 31 17h35q14 0 17.5 -8t-5.5 -21l-1026 -1389q-13 -16 -31 -16h-35z" />
    <glyph glyph-name="uni2074" unicode="&#x2074;" horiz-adv-x="653" 
d="M668 1231q10 0 16 -7t4 -18l-2 -26q-1 -10 -9.5 -17.5t-19.5 -7.5h-32q-9 0 -9 -8l-26 -203q0 -10 -8 -17t-19 -7h-33q-23 0 -20 24l25 203q0 8 -9 8h-340q-22 0 -22 25l4 24q4 22 10 31l303 526q8 19 29 19h33q30 0 14 -29l-291 -510q-3 -3 -1.5 -6.5t5.5 -3.5h267
q8 0 8 8l24 186q0 10 8 17.5t19 7.5h33q10 0 16 -7t4 -18l-22 -186q0 -8 8 -8h33z" />
    <glyph glyph-name="uni2075" unicode="&#x2075;" horiz-adv-x="593" 
d="M639 1319q16 -66 8 -141q-9 -76 -43 -140q-74 -135 -229 -135q-83 0 -136 44.5t-67 119.5q-2 23 -2 63q0 25 25 25h36q21 0 21 -18v-9l2 -32q3 -54 38.5 -86.5t92.5 -32.5q99 0 145 88q30 58 35 111q8 61 -6 118q-29 82 -123 82q-107 0 -153 -73q-1 -1 -2 -4.5t-2 -4.5
q-8 -16 -27 -16h-39q-10 0 -16 7t-4 18l53 446q1 10 9 17.5t17 7.5h390q9 0 15 -7.5t5 -17.5l-4 -23q0 -10 -8 -17t-19 -7h-323q-9 0 -9 -8l-36 -291q0 -5 2.5 -7t7.5 1q65 53 164 53q140 0 182 -131z" />
    <glyph glyph-name="uni2076" unicode="&#x2076;" horiz-adv-x="612" 
d="M659 1288q3 -26 -4 -110q-10 -75 -24 -111q-30 -73 -96.5 -118.5t-149.5 -45.5q-82 0 -134.5 45t-66.5 119q-6 31 0 113l47 376q12 106 84 167t179 61q96 0 150 -58t44 -153v-4q-1 -10 -9.5 -17.5t-19.5 -7.5h-32q-23 0 -23 12l2 11q7 62 -28.5 102.5t-94.5 40.5
q-69 0 -117 -43.5t-57 -118.5l-20 -168q0 -12 8 -4q72 72 166 72q78 0 131 -44t65 -116zM557 1092q13 41 18 84q6 62 3 81q-3 53 -40 86t-96 33q-55 0 -97 -32t-60 -84q-13 -26 -19 -84q-8 -38 -4 -84q3 -51 39.5 -83t91.5 -32q58 0 100.5 31t63.5 84z" />
    <glyph glyph-name="uni2077" unicode="&#x2077;" horiz-adv-x="542" 
d="M254 920q-28 0 -16 28l358 750q5 10 -4 10h-322q-2 0 -5 -2.5t-3 -5.5l-6 -60q-1 -10 -9.5 -17t-19.5 -7h-18q-11 0 -16.5 7t-4.5 17l13 115q2 11 10 18t18 7h443q10 0 16 -7t4 -18l-4 -31q0 -10 -10 -30l-359 -754q-9 -20 -30 -20h-35z" />
    <glyph glyph-name="uni2078" unicode="&#x2078;" horiz-adv-x="618" 
d="M567 1376q-11 -6 -2 -12q65 -40 80 -113q5 -31 0 -98q-8 -52 -22 -92q-30 -70 -96.5 -114t-149.5 -44q-81 0 -134.5 43t-68.5 115q-9 51 -2 94q6 42 27 94q35 79 104 115q8 6 2 12q-58 36 -78 109q-9 37 -4 78q8 46 25 79q74 144 237 144q84 0 138 -39t69 -107
q8 -35 4 -77q-3 -29 -22 -76q-38 -74 -107 -111zM301 1559q-2 -13 2 -46q6 -50 40 -79t95 -29q58 0 100.5 25.5t59.5 68.5q8 21 10 29q6 30 6 31q5 28 0 47q-6 51 -42 79.5t-95 28.5t-100.5 -29.5t-61.5 -78.5q-12 -31 -14 -47zM563 1161q5 46 4 58q-3 54 -40 87t-97 33
q-59 0 -101 -32.5t-61 -87.5q-9 -26 -14 -60q-4 -39 -2 -63q3 -54 39 -86.5t96 -32.5q58 0 102 33t62 86q8 22 12 65z" />
    <glyph glyph-name="uni2079" unicode="&#x2079;" horiz-adv-x="612" 
d="M678 1620q10 -49 0 -113l-47 -377q-12 -106 -83.5 -166.5t-178.5 -60.5q-96 0 -150.5 58t-44.5 153v4q1 10 9.5 17.5t19.5 7.5h33q22 0 22 -10l-2 -13q-7 -62 28.5 -102.5t94.5 -40.5q69 0 117 43.5t57 118.5l20 168q0 12 -8 4q-72 -72 -166 -72q-78 0 -131 44t-65 116
q-3 26 4 110q10 75 24 111q30 73 96.5 118.5t149.5 45.5q82 0 134.5 -45t66.5 -119zM578 1427q11 23 18 84q6 30 6 84q-5 51 -41.5 83t-91.5 32q-58 0 -100.5 -31t-63.5 -84q-13 -41 -18 -84q-6 -59 -2 -81q3 -53 39.5 -86t95.5 -33q56 0 98 32t60 84z" />
    <glyph glyph-name="franc" unicode="&#x20a3;" horiz-adv-x="1300" 
d="M1380 1362q-4 -25 -26 -25h-748q-2 0 -5 -2.5t-3 -5.5l-68 -553q0 -8 7 -8h528q22 0 22 -25l-6 -47q-1 -10 -9 -17t-17 -7h-529q-10 0 -10 -8l-35 -281q0 -8 8 -8h308q10 0 16 -7t4 -18l-2 -28q-1 -10 -9.5 -17.5t-19.5 -7.5h-307q-8 0 -8 -8l-33 -264q-4 -25 -26 -25
h-58q-22 0 -22 25l33 264q1 3 -1.5 5.5t-5.5 2.5h-135q-10 0 -16 7t-4 18l4 28q0 10 7.5 17.5t18.5 7.5h136q8 0 8 8l125 1026q2 11 10 18t18 7h836q10 0 16 -7t4 -18z" />
    <glyph glyph-name="Euro" unicode="&#x20ac;" horiz-adv-x="1263" 
d="M694 78q119 0 206 67.5t118 182.5q6 23 29 20l53 -10q24 -3 18 -29q-40 -150 -156.5 -238.5t-277.5 -88.5q-183 0 -279 110.5t-73 292.5l20 168q0 8 -8 8h-133q-11 0 -17.5 7.5t-5.5 17.5l5 20q0 10 7.5 17.5t18.5 7.5h135q8 0 8 8l19 149q0 9 -6 9h-135q-23 0 -23 24
l4 21q2 11 9.5 17.5t17.5 6.5h135q8 0 8 8l23 177q22 182 144.5 290.5t305.5 108.5q164 0 259.5 -90.5t95.5 -243.5q0 -12 -8 -19.5t-19 -9.5l-57 -8q-11 -2 -18 4.5t-7 18.5q2 114 -68 183t-190 69q-134 0 -225.5 -82t-108.5 -217l-20 -181q-1 -3 1 -5.5t5 -2.5h493
q29 0 17 -28l-10 -23q-6 -18 -29 -18h-479q-6 0 -11 -9l-18 -149q0 -8 8 -8h426q30 0 17 -29l-11 -22q-9 -19 -30 -19h-410q-6 0 -10 -8l-21 -174q-17 -135 54.5 -218t203.5 -83z" />
    <glyph glyph-name="uni20BA" unicode="&#x20ba;" horiz-adv-x="1261" 
d="M1038 518q1 11 9 18t18 7h59q10 0 16 -7t3 -18q-32 -192 -183 -334t-380 -172q-88 -12 -185 -12q-24 0 -20 25l78 630q0 3 -3 6.5t-6 2.5l-208 -60q-11 -3 -19.5 2t-9.5 17l-2 22q-4 25 18 31l234 65q6 3 6 11l16 127q0 4 -1.5 6.5t-4.5 1.5l-211 -60q-23 -7 -26 19
l-5 22q-3 24 21 31l231 66q9 5 9 10l53 434q4 25 26 25h58q10 0 16 -7t4 -18l-49 -401q0 -3 2.5 -6.5t5.5 -2.5l275 78q25 7 28 -18l2 -23q3 -24 -18 -30l-299 -84q-3 -2 -8 -11l-15 -127q0 -3 2 -6t5 -2l276 78q24 7 27 -18l4 -23q3 -24 -21 -31l-297 -84q-8 -4 -8 -10
l-72 -586q0 -8 11 -8q213 12 359.5 132t178.5 292z" />
    <glyph glyph-name="uni20BD" unicode="&#x20bd;" horiz-adv-x="1388" 
d="M973 664h-414q-3 0 -6.5 -3t-3.5 -6l-23 -186q0 -8 6 -8h500q10 0 16.5 -7t4.5 -18l-4 -26q0 -10 -8 -17.5t-19 -7.5h-498q-8 0 -8 -8l-45 -352q0 -10 -8 -17.5t-19 -7.5h-57q-10 0 -16 7t-4 18l43 352q0 8 -7 8h-170q-10 0 -16 7t-4 18l4 26q4 25 27 25h168q6 0 10 8
l22 186q0 9 -8 9h-168q-23 0 -20 24l4 43q1 10 9.5 17.5t17.5 7.5h170q8 0 8 8l80 649q1 10 9 17.5t17 7.5h508q169 0 260.5 -108t69.5 -281t-140.5 -279t-287.5 -106zM641 1339q-8 0 -8 -8l-70 -567q-1 -3 1 -5.5t5 -2.5h410q126 0 213 79.5t102 211.5q17 133 -49.5 212.5
t-193.5 79.5h-410z" />
    <glyph glyph-name="uni2113" unicode="&#x2113;" horiz-adv-x="997" 
d="M563 70q95 0 174 59q22 16 31 -6l12 -33q6 -22 -8 -33q-39 -32 -103.5 -52.5t-131.5 -20.5q-123 0 -180 81t-40 226l29 241q0 6 -3.5 7t-6.5 -2l-86 -64q-9 -9 -19 -7.5t-14 13.5l-12 27q-7 20 12 35q2 1 137 102q6 6 6 10l46 377q18 159 109 284.5t212 135.5
q99 9 157 -66.5t44 -191.5q-8 -66 -40 -131.5t-73 -118.5t-106.5 -113.5t-120.5 -103.5t-135 -102q-7 -7 -7 -11l-34 -309q-29 -233 151 -233zM494 1018l-33 -285q0 -11 10 -4q78 58 134.5 107t110.5 107.5t85.5 119t38.5 121.5q11 83 -23.5 137t-97.5 45
q-78 -9 -142.5 -106.5t-82.5 -241.5z" />
    <glyph glyph-name="trademark" unicode="&#x2122;" horiz-adv-x="1298" 
d="M201 1368q-10 0 -16.5 7t-6.5 18l2 16q1 10 9.5 17.5t17.5 7.5h438q10 0 16.5 -7t4.5 -18l-2 -16q-4 -25 -27 -25h-178q-6 0 -10 -8l-76 -621q-2 -11 -9.5 -17.5t-17.5 -6.5h-27q-9 0 -15 7t-5 17l76 621q1 3 -1 5.5t-5 2.5h-168zM1251 1417q10 17 29 17h31q10 0 16 -7
t4 -18l-82 -670q-3 -24 -26 -24h-25q-23 0 -20 24l67 551q0 6 -2.5 8t-7.5 -4l-172 -227q-13 -16 -31 -16h-2q-18 0 -24 16l-117 227q-3 6 -6.5 4t-5.5 -8l-68 -551q0 -10 -8 -17t-19 -7h-22q-11 0 -16.5 7t-4.5 17l82 670q4 25 27 25h29q19 0 26 -17l133 -268q2 -3 7 -3
t6 3z" />
    <glyph glyph-name="uni2126" unicode="&#x2126;" horiz-adv-x="1277" 
d="M141 0q-10 0 -16 7t-4 18l6 47q0 10 8 17t19 7h180q4 0 5.5 1.5t0.5 4t-4 4.5q-81 55 -118.5 150.5t-22.5 218.5l63 510q26 209 168.5 337t349.5 128t319.5 -128t86.5 -337l-64 -510q-15 -123 -75.5 -218.5t-155.5 -150.5q-3 -2 -4 -4.5t0.5 -4t5.5 -1.5h180
q11 0 16.5 -7t4.5 -17l-7 -47q-4 -25 -26 -25h-346q-10 0 -16.5 7t-4.5 18l6 51q3 20 25 26q101 23 188 122.5t103 236.5l65 526q20 166 -66 266.5t-247 100.5q-160 0 -269.5 -100.5t-129.5 -266.5l-66 -526q-18 -137 43.5 -236t153.5 -123q21 -7 18 -26l-6 -51
q-4 -25 -27 -25h-340z" />
    <glyph glyph-name="estimated" unicode="&#x212e;" horiz-adv-x="1759" 
d="M1018 1450q208 0 362 -96t226 -264.5t47 -378.5q0 -9 -25 -9h-1251q-6 0 -10 -8l-45 -366q0 -2 1 -6t1 -5q73 -133 208 -207.5t312 -74.5q193 0 360 92.5t271 251.5q16 16 32 16h9q12 0 15.5 -8t-3.5 -20q-110 -176 -294 -279.5t-396 -103.5q-154 0 -282 55.5t-211 152
t-121 231.5t-19 288q25 209 138.5 378t291 265t383.5 96zM426 1116q-6 -3 -6 -10l-43 -344q0 -8 8 -8h1096q6 0 10 8l41 342q0 8 -2 10q-73 134 -207 209.5t-311 75.5q-176 0 -329 -75t-257 -208z" />
    <glyph glyph-name="oneeighth" unicode="&#x215b;" horiz-adv-x="1556" 
d="M297 598q0 -10 -8 -17.5t-19 -7.5h-32q-10 0 -16.5 7t-4.5 18l90 743q2 3 -0.5 6.5t-5.5 2.5l-72 -19q-12 -3 -19 3t-5 18l2 14q3 20 22 29l76 32q17 7 31 7h41q10 0 16 -7t4 -18zM1204 1417q14 17 31 17h35q14 0 17.5 -8t-5.5 -21l-1026 -1389q-10 -16 -29 -16h-37
q-14 0 -17.5 8t5.5 21zM1391 457q-10 -7 0 -13q65 -40 77 -112q8 -41 0 -99q-3 -46 -20 -92q-30 -70 -96.5 -113.5t-149.5 -43.5q-82 0 -135 42.5t-68 114.5q-11 46 -2 95q2 34 27 94q29 73 102 114q12 6 2 13q-59 38 -75 108q-9 37 -4 78q3 39 22 80q73 143 240 143
q84 0 138 -38.5t69 -106.5q8 -35 4 -78q-7 -38 -25 -76q-31 -70 -106 -110zM1124 639q0 -13 4 -45q6 -50 40.5 -79.5t95.5 -29.5q58 0 100 26t57 69q5 9 13 28q0 2 2.5 14t3.5 17q0 4 1 13.5t1 18t-2 15.5q-6 51 -43.5 80t-96.5 29q-58 0 -98.5 -29.5t-60.5 -79.5
q-14 -29 -17 -47zM1389 242q5 42 2 57q-2 54 -39 87.5t-97 33.5q-58 0 -100 -32.5t-61 -88.5q-15 -43 -15 -59q-5 -25 -2 -64q3 -55 38.5 -87t94.5 -32t103.5 33t62.5 86q10 40 13 66z" />
    <glyph glyph-name="threeeighths" unicode="&#x215c;" horiz-adv-x="1757" 
d="M573 702q-72 -122 -223 -122q-84 0 -136.5 44.5t-66.5 120.5q-8 34 -4 80q3 25 27 25h33q25 0 22 -25q-3 -29 0 -55q3 -53 39 -85t94 -32q92 0 142 78q33 61 41 121q9 81 -13 135q-31 78 -118 78q-11 0 -31 -4q-24 -7 -33 8l-12 16q-10 17 4 35l233 246q3 3 1.5 6.5
t-5.5 3.5h-325q-9 0 -15.5 7.5t-5.5 17.5l4 24q4 25 27 25h414q9 0 15 -7.5t5 -17.5l-4 -32q-3 -21 -14 -29l-213 -231q-3 -3 -2 -7t4 -4q114 -9 151 -108q21 -69 10 -162q-9 -85 -45 -150zM1407 1417q14 17 31 17h35q14 0 17.5 -8t-5.5 -21l-1026 -1389q-10 -16 -29 -16
h-37q-14 0 -17.5 8t5.5 21zM1593 457q-10 -7 0 -13q66 -40 78 -112q8 -41 0 -99q-3 -46 -20 -92q-30 -70 -96.5 -113.5t-149.5 -43.5t-136 42.5t-67 114.5q-9 38 -4 95q5 35 29 94q29 73 102 114q12 6 2 13q-61 39 -76 108q-9 37 -4 78q3 36 23 80q73 143 239 143
q83 0 136 -38t71 -107q8 -35 4 -78q-7 -41 -24 -76q-31 -70 -107 -110zM1327 639q0 -13 4 -45q6 -50 40 -79.5t95 -29.5q58 0 100.5 26t57.5 69q2 4 12 28q0 2 2.5 14t3.5 17q0 4 1 13.5t1 18t-2 15.5q-6 51 -43 80t-96 29q-58 0 -99 -30t-61 -79q-13 -26 -16 -47zM1591 242
q5 42 2 57q-2 54 -38.5 87.5t-96.5 33.5q-58 0 -100.5 -32.5t-61.5 -88.5q-13 -37 -16 -59q-3 -28 0 -64q3 -55 38.5 -87t94.5 -32t103.5 33t62.5 86q9 34 12 66z" />
    <glyph glyph-name="fiveeighths" unicode="&#x215d;" horiz-adv-x="1695" 
d="M1346 1417q14 17 30 17h35q14 0 17.5 -8t-5.5 -21l-1026 -1389q-13 -16 -30 -16h-35q-14 0 -18 8t5 21zM563 696q-74 -135 -229 -135q-85 0 -138 44.5t-65 119.5q-5 32 -2 63q0 25 25 25h34q20 0 23 -18q0 -7 -2 -9l2 -32q5 -54 39.5 -86.5t91.5 -32.5q99 0 145 88
q28 49 37 111q6 72 -8 118q-29 82 -121 82q-107 0 -153 -73q-1 -1 -3 -4.5t-3 -4.5q-5 -16 -25 -16h-41q-10 0 -16 7t-4 18l55 446q4 25 26 25h387q10 0 16.5 -7t4.5 -18l-2 -23q-2 -11 -9.5 -17.5t-17.5 -6.5h-323q-7 0 -11 -8l-34 -291q0 -11 8 -6q68 53 164 53
q143 0 182 -131q18 -63 10 -141q-13 -84 -43 -140zM1532 457q-9 -6 -2 -13q68 -40 80 -112q8 -41 0 -99q-3 -42 -21 -92q-30 -70 -96.5 -113.5t-149.5 -43.5t-135.5 42.5t-66.5 114.5q-9 38 -4 95q5 39 28 94q28 73 103 114q11 7 2 13q-61 39 -76 108q-9 37 -4 78
q3 39 22 80q73 143 240 143q83 0 136 -38t71 -107q8 -35 4 -78q-7 -38 -25 -76q-38 -74 -106 -110zM1266 639q0 -13 4 -45q6 -50 40 -79.5t95 -29.5q57 0 100 26t58 69q7 11 10 28q1 2 8 31v47q-6 51 -43 80t-96 29q-58 0 -99 -30t-61 -79q-13 -26 -16 -47zM1530 242
q5 42 2 57q-2 54 -38.5 87.5t-96.5 33.5q-58 0 -100.5 -32.5t-61.5 -88.5q-13 -37 -16 -59q-2 -20 -2 -64q5 -55 40.5 -87t94.5 -32t103.5 33t62.5 86q9 34 12 66z" />
    <glyph glyph-name="seveneighths" unicode="&#x215e;" horiz-adv-x="1564" 
d="M279 594q-9 -21 -31 -21h-37q-12 0 -17 7.5t1 21.5l358 750q5 10 -4 10h-320q-6 0 -10 -8l-6 -60q-1 -10 -9.5 -17t-17.5 -7h-20q-11 0 -16.5 7t-4.5 17l15 115q4 25 26 25h443q10 0 16 -7t4 -18l-4 -31q0 -6 -8 -30zM1214 1417q14 17 31 17h35q14 0 17.5 -8t-5.5 -21
l-1026 -1389q-13 -16 -30 -16h-35q-14 0 -18 8t5 21zM1401 457q-9 -6 -2 -13q68 -40 80 -112q8 -41 0 -99q-3 -42 -21 -92q-30 -70 -96.5 -113.5t-149.5 -43.5t-135.5 42.5t-66.5 114.5q-9 38 -4 95q5 39 28 94q28 73 103 114q11 7 2 13q-61 39 -76 108q-9 37 -4 78
q3 39 22 80q73 143 240 143q83 0 136 -38t71 -107q8 -35 4 -78q-7 -38 -25 -76q-38 -74 -106 -110zM1135 639q0 -13 4 -45q5 -49 39.5 -79t95.5 -30q57 0 100 26t58 69q7 11 10 28q1 2 8 31v47q-6 51 -43 80t-96 29q-58 0 -99 -30t-61 -79q-13 -26 -16 -47zM1399 242
q5 42 2 57q-2 54 -38.5 87.5t-96.5 33.5q-58 0 -100.5 -32.5t-61.5 -88.5q-15 -42 -17 -59q-2 -20 -2 -64q5 -55 41 -87t95 -32t103 32.5t62 86.5q10 40 13 66z" />
    <glyph glyph-name="partialdiff" unicode="&#x2202;" horiz-adv-x="1159" 
d="M956 1280q123 -210 72 -608q-14 -105 -34.5 -193.5t-62 -183.5t-97 -160.5t-144 -108t-198.5 -42.5q-182 0 -277 119t-70 321q26 204 162.5 329.5t313.5 125.5q187 -3 301 -144q3 -3 5.5 -2t2.5 6q27 317 -62 473q-67 117 -198 134q-125 11 -240 -60q-24 -17 -31 10
l-10 47q-3 22 14 33q131 85 283 70q181 -15 270 -166zM508 80q167 0 264 124t137 361v10q-31 90 -108.5 149t-182.5 58q-137 0 -242.5 -99t-123.5 -257q-20 -155 51 -250.5t205 -95.5z" />
    <glyph glyph-name="uni2206" unicode="&#x2206;" horiz-adv-x="1255" 
d="M51 0q-10 0 -16 7t-4 18l6 55q4 18 10 31l664 1304q6 19 28 19h49q22 0 25 -19l342 -1306q4 -22 2 -31l-6 -53q-4 -25 -27 -25h-1073zM147 104q-2 -3 0.5 -6.5t6.5 -3.5h893q8 0 8 10l-303 1178q-2 6 -6 6t-7 -6z" />
    <glyph glyph-name="product" unicode="&#x220f;" horiz-adv-x="1308" 
d="M1245 1638q23 0 23 -24l-246 -1999q-1 -10 -9.5 -17.5t-17.5 -7.5h-57q-10 0 -16.5 7t-6.5 18l236 1919q1 3 -1 5.5t-5 2.5h-680q-8 0 -8 -8l-236 -1919q-4 -25 -26 -25h-58q-22 0 -22 25l245 1999q1 10 9.5 17t17.5 7h858z" />
    <glyph glyph-name="summation" unicode="&#x2211;" horiz-adv-x="1224" 
d="M137 -408q-10 0 -16 7t-4 18l6 53q0 14 10 31l594 901q4 8 2 12l-389 748q-7 17 -4 31l6 53q1 10 9.5 17t17.5 7h848q9 0 15 -7t5 -17l-6 -45q-4 -25 -27 -25h-747q-5 0 -7 -3.5t1 -6.5l389 -741q7 -17 -4 -33l-590 -895q-2 -2 -2.5 -4.5t0.5 -4t4 -1.5h749
q9 0 15.5 -7.5t5.5 -17.5l-6 -45q-4 -25 -27 -25h-848z" />
    <glyph glyph-name="minus" unicode="&#x2212;" horiz-adv-x="1001" 
d="M141 600q-10 0 -16 7t-4 18l4 45q1 10 9.5 17t19.5 7h786q11 0 16.5 -7t4.5 -17l-7 -45q-4 -25 -26 -25h-787z" />
    <glyph glyph-name="uni2215" unicode="&#x2215;" horiz-adv-x="940" 
d="M55 0q-30 0 -14 29l864 1386q9 19 29 19h49q12 0 16.5 -8t-2.5 -21l-862 -1387q-12 -18 -31 -18h-49z" />
    <glyph glyph-name="uni2219" unicode="&#x2219;" horiz-adv-x="610" 
d="M317 414q-92 0 -149 68t-45 163t84.5 160t165.5 65q90 0 147 -65.5t45 -159.5q-10 -95 -84 -163t-164 -68z" />
    <glyph glyph-name="radical" unicode="&#x221a;" horiz-adv-x="1425" 
d="M256 -410q-21 0 -27 21l-159 698q-5 21 20 31l53 16q23 8 29 -14l127 -563q0 -3 1.5 -4t4 0t4.5 4l697 1816q9 21 30 21h353q10 0 16 -7t4 -18l-6 -45q0 -10 -8 -17t-19 -7h-280q-9 0 -13 -6l-731 -1905q-9 -21 -30 -21h-66z" />
    <glyph glyph-name="infinity" unicode="&#x221e;" horiz-adv-x="1445" 
d="M1139 965q132 0 206.5 -90.5t57.5 -223.5q-15 -132 -111.5 -220.5t-234.5 -88.5q-108 0 -178 56.5t-131 166.5q-6 7 -13 0q-88 -105 -171 -164t-183 -59q-125 0 -199 90.5t-57 222.5q15 131 112 220.5t228 89.5q55 0 100 -17t80 -50.5t59.5 -69.5t51.5 -87q7 -7 16 4
q99 115 186.5 167.5t180.5 52.5zM391 430q45 0 86 17t81 53t67.5 66.5t68.5 82.5q3 7 0 13q-29 56 -49.5 88.5t-49.5 65t-64 47t-80 14.5q-93 0 -160.5 -63t-79.5 -159q-11 -96 40.5 -160.5t139.5 -64.5zM1069 430q99 0 167 62.5t79 158.5q12 97 -40 161.5t-145 64.5
q-59 0 -116 -31t-100.5 -73.5t-104.5 -115.5q-3 -6 0 -12q29 -53 51 -86t53.5 -65.5t70 -48t85.5 -15.5z" />
    <glyph glyph-name="integral" unicode="&#x222b;" horiz-adv-x="817" 
d="M8 -410q-22 0 -22 25l4 47q1 10 9 17.5t17 7.5h45q116 0 166 57.5t66 185.5l151 1168q13 104 37 167t71.5 101t112.5 52t171 16q24 0 20 -25l-4 -47q-4 -25 -27 -25h-41q-119 0 -169 -57t-66 -186l-152 -1168q-13 -104 -37 -167t-71 -101t-111.5 -52t-169.5 -16z" />
    <glyph glyph-name="approxequal" unicode="&#x2248;" horiz-adv-x="976" 
d="M733 768q-42 0 -83 13.5t-59 24t-59 36.5q-80 49 -149 49q-97 0 -160 -82q-19 -19 -35 -6l-26 18q-16 13 -4 33q39 63 101 99t134 36q84 0 166 -53q2 -1 21.5 -13.5t24.5 -15t22 -12t26.5 -12.5t25.5 -8.5t31.5 -7t32.5 -1.5q42 0 75.5 20.5t68.5 59.5q19 19 35 6l26 -22
q17 -14 6 -33q-90 -129 -221 -129zM680 322q-43 0 -84 13t-60 24t-59 36q-80 49 -147 49q-99 0 -162 -82q-19 -19 -35 -6l-24 19q-19 12 -7 33q39 62 101.5 98.5t134.5 36.5q50 0 87.5 -13.5t80.5 -40.5q70 -45 104 -57q38 -12 80 -12t73.5 20t67.5 60q19 19 35 6l27 -23
q18 -12 6 -32q-90 -129 -219 -129z" />
    <glyph glyph-name="notequal" unicode="&#x2260;" horiz-adv-x="1001" 
d="M983 860q-2 -11 -9.5 -17.5t-17.5 -6.5h-297q-3 0 -10 -7l-192 -323q-3 -10 6 -10h452q10 0 16.5 -7t4.5 -18l-6 -45q-4 -25 -27 -25h-502q-5 0 -8 -6l-98 -164q-12 -18 -31 -18h-22q-14 0 -18 7.5t3 21.5l86 149q3 3 1.5 6.5t-5.5 3.5h-192q-10 0 -16.5 7t-4.5 18l6 45
q0 10 8 17.5t19 7.5h242q5 0 8 6l192 323q7 11 -4 11h-397q-23 0 -20 24l6 45q0 10 7.5 17.5t18.5 7.5h445q5 0 8 6l121 199q9 18 28 18h25q30 0 14 -29l-110 -184q-3 -10 6 -10h250q10 0 16 -7t4 -18z" />
    <glyph glyph-name="lessequal" unicode="&#x2264;" horiz-adv-x="1001" 
d="M907 242q-2 -14 -9.5 -19.5t-18.5 0.5l-744 383q-14 8 -14 29l8 61q3 21 23 29l835 383q12 6 19.5 1t5.5 -19l-6 -58q-3 -18 -23 -28l-741 -332q-12 -6 -2 -13l661 -331q14 -8 14 -29zM881 25q-4 -25 -27 -25h-786q-10 0 -16.5 7t-4.5 18l6 45q0 10 8 17t19 7h786
q11 0 16.5 -7t4.5 -17z" />
    <glyph glyph-name="greaterequal" unicode="&#x2265;" horiz-adv-x="1001" 
d="M98 223q-12 -6 -19 -0.5t-5 19.5l6 57q3 20 22 29l742 331q12 6 2 13l-662 332q-17 10 -14 28l8 58q1 13 10 18.5t19 -0.5l741 -383q18 -9 15 -29l-7 -61q-4 -21 -22 -29zM68 0q-10 0 -16.5 7t-4.5 18l6 45q0 10 8 17t19 7h786q11 0 16.5 -7t4.5 -17l-6 -45
q-4 -25 -27 -25h-786z" />
    <glyph glyph-name="lozenge" unicode="&#x25ca;" horiz-adv-x="946" 
d="M397 -90q-19 0 -24 18l-236 772q-3 15 4 33l426 772q11 19 31 19h43q22 0 27 -19l237 -772q3 -15 -4 -33l-426 -772q-8 -18 -29 -18h-49zM432 33q0 -3 2 -4t4.5 0t3.5 4l365 678q3 6 0 12l-197 678q0 3 -2 4t-4.5 0t-3.5 -4l-364 -678q-3 -6 -3 -12z" />
    <glyph glyph-name="i.loclTRK" horiz-adv-x="430" 
d="M322 1229q-35 0 -55.5 22.5t-16.5 57.5q5 34 30 55.5t62 21.5q32 0 50.5 -21.5t15.5 -55.5q-4 -35 -28.5 -57.5t-57.5 -22.5zM143 0q-10 0 -16 7t-4 18l121 983q0 10 7.5 17t18.5 7h58q23 0 20 -24l-121 -983q-4 -25 -26 -25h-58z" />
    <glyph glyph-name="a.alt" horiz-adv-x="1005" 
d="M594 1049q174 0 254 -93t61 -251l-84 -680q-4 -25 -26 -25h-58q-10 0 -16 7t-4 18l10 88q0 11 -10 4q-60 -65 -149 -99t-187 -34q-51 0 -96 9.5t-84.5 31.5t-66 54.5t-38.5 82.5t-4 112q19 153 138.5 240.5t310.5 87.5h237q11 0 11 8l10 92q14 115 -39.5 182.5
t-183.5 67.5q-100 0 -171 -41.5t-96 -113.5q-10 -24 -30 -21l-62 8q-25 4 -18 23q33 108 139 175t252 67zM418 78q126 0 225.5 63t112.5 176l22 187q1 3 -1 5.5t-5 2.5h-227q-142 0 -236.5 -61.5t-107.5 -169.5q-11 -100 50 -151.5t167 -51.5z" />
    <glyph glyph-name="a.sc" horiz-adv-x="1021" 
d="M831 0q-19 0 -22 20l-41 209q-2 7 -8 7h-520q-7 0 -9 -7l-94 -209q-7 -20 -28 -20h-58q-27 0 -14 29l510 1130q11 21 28 21h76q19 0 23 -21l237 -1130q3 -13 -3 -21t-17 -8h-60zM281 336q-3 -3 -1.5 -6.5t5.5 -3.5h452q8 0 8 10l-139 711q-2 5 -6 5t-6 -5z" />
    <glyph glyph-name="aacute.sc" horiz-adv-x="1021" 
d="M801 1595q13 0 16.5 -7.5t-4.5 -20.5l-156 -219q-9 -17 -28 -17h-47q-12 0 -15.5 8.5t2.5 20.5l146 219q10 16 30 16h56zM831 0q-19 0 -22 20l-41 209q-2 7 -8 7h-520q-7 0 -9 -7l-94 -209q-7 -20 -28 -20h-58q-27 0 -14 29l510 1130q11 21 28 21h76q19 0 23 -21
l237 -1130q3 -13 -3 -21t-17 -8h-60zM281 336q-3 -3 -1.5 -6.5t5.5 -3.5h452q8 0 8 10l-139 711q-2 5 -6 5t-6 -5z" />
    <glyph glyph-name="abreve.sc" horiz-adv-x="1021" 
d="M625 1262q-81 0 -134 53t-51 133q0 25 25 25h22q9 0 16 -6.5t7 -18.5q2 -52 36 -86.5t85 -34.5q54 0 97 34t58 87q6 25 29 25h21q26 0 20 -25q-19 -80 -84.5 -133t-146.5 -53zM831 0q-19 0 -22 20l-41 209q-2 7 -8 7h-520q-7 0 -9 -7l-94 -209q-7 -20 -28 -20h-58
q-27 0 -14 29l510 1130q11 21 28 21h76q19 0 23 -21l237 -1130q3 -13 -3 -21t-17 -8h-60zM281 336q-3 -3 -1.5 -6.5t5.5 -3.5h452q8 0 8 10l-139 711q-2 5 -6 5t-6 -5z" />
    <glyph glyph-name="uni01CE.sc" horiz-adv-x="1021" 
d="M688 1307q-12 -15 -29 -15h-67q-18 0 -27 15l-129 213q-7 12 -1.5 21t20.5 9h39q20 0 28 -14l109 -176q0 -3 4.5 -3t5.5 3l152 176q11 14 28 14h41q15 0 18 -9t-8 -21zM831 0q-19 0 -22 20l-41 209q-2 7 -8 7h-520q-7 0 -9 -7l-94 -209q-7 -20 -28 -20h-58q-27 0 -14 29
l510 1130q11 21 28 21h76q19 0 23 -21l237 -1130q3 -13 -3 -21t-17 -8h-60zM281 336q-3 -3 -1.5 -6.5t5.5 -3.5h452q8 0 8 10l-139 711q-2 5 -6 5t-6 -5z" />
    <glyph glyph-name="acircumflex.sc" horiz-adv-x="1021" 
d="M659 1505q-1 3 -6 3t-6 -3l-149 -176q-14 -14 -33 -14h-43q-15 0 -18 9.5t8 21.5l184 213q14 14 33 14h61q19 0 27 -14l135 -213q7 -12 1.5 -21.5t-19.5 -9.5h-43q-17 0 -25 14zM831 0q-19 0 -22 20l-41 209q-2 7 -8 7h-520q-7 0 -9 -7l-94 -209q-7 -20 -28 -20h-58
q-27 0 -14 29l510 1130q11 21 28 21h76q19 0 23 -21l237 -1130q3 -13 -3 -21t-17 -8h-60zM281 336q-3 -3 -1.5 -6.5t5.5 -3.5h452q8 0 8 10l-139 711q-2 5 -6 5t-6 -5z" />
    <glyph glyph-name="adieresis.sc" horiz-adv-x="1021" 
d="M479 1391q-37 0 -57.5 23.5t-15.5 60.5q5 34 31.5 57.5t62.5 23.5q35 0 54.5 -23.5t16.5 -57.5q-4 -37 -30.5 -60.5t-61.5 -23.5zM803 1391q-37 0 -58.5 23.5t-17.5 60.5q5 34 32.5 57.5t63.5 23.5q33 0 53 -23.5t17 -57.5q-4 -36 -30 -60t-60 -24zM831 0q-19 0 -22 20
l-41 209q-2 7 -8 7h-520q-7 0 -9 -7l-94 -209q-7 -20 -28 -20h-58q-27 0 -14 29l510 1130q11 21 28 21h76q19 0 23 -21l237 -1130q3 -13 -3 -21t-17 -8h-60zM281 336q-3 -3 -1.5 -6.5t5.5 -3.5h452q8 0 8 10l-139 711q-2 5 -6 5t-6 -5z" />
    <glyph glyph-name="agrave.sc" horiz-adv-x="1021" 
d="M664 1360q4 -12 -1.5 -20.5t-17.5 -8.5h-47q-19 0 -25 17l-100 219q-12 28 19 28h53q22 0 28 -16zM831 0q-19 0 -22 20l-41 209q-2 7 -8 7h-520q-7 0 -9 -7l-94 -209q-7 -20 -28 -20h-58q-27 0 -14 29l510 1130q11 21 28 21h76q19 0 23 -21l237 -1130q3 -13 -3 -21
t-17 -8h-60zM281 336q-3 -3 -1.5 -6.5t5.5 -3.5h452q8 0 8 10l-139 711q-2 5 -6 5t-6 -5z" />
    <glyph glyph-name="amacron.sc" horiz-adv-x="1021" 
d="M885 1454q9 0 15 -7t5 -17l-4 -33q-1 -10 -9.5 -17.5t-17.5 -7.5h-473q-10 0 -16 7t-4 18l4 33q0 10 8 17t19 7h473zM831 0q-19 0 -22 20l-41 209q-2 7 -8 7h-520q-7 0 -9 -7l-94 -209q-7 -20 -28 -20h-58q-27 0 -14 29l510 1130q11 21 28 21h76q19 0 23 -21l237 -1130
q3 -13 -3 -21t-17 -8h-60zM281 336q-3 -3 -1.5 -6.5t5.5 -3.5h452q8 0 8 10l-139 711q-2 5 -6 5t-6 -5z" />
    <glyph glyph-name="aogonek.sc" horiz-adv-x="1071" 
d="M893 -301q22 5 25 -18l2 -21q4 -25 -21 -31q-34 -9 -71.5 -7t-69.5 11.5t-55 38t-27 72.5q-13 133 147 250q5 5 0 8q-10 3 -14 18l-41 209q-2 7 -8 7h-520q-7 0 -9 -7l-94 -209q-7 -20 -28 -20h-58q-27 0 -14 29l510 1130q11 21 28 21h76q19 0 23 -21l239 -1139l5 -20
q-5 -2 -9 -4q-156 -114 -151 -223q4 -51 41.5 -68t93.5 -6zM281 336q-3 -3 -1.5 -6.5t5.5 -3.5h452q8 0 8 10l-139 711q-2 5 -6 5t-6 -5z" />
    <glyph glyph-name="aring.sc" horiz-adv-x="1021" 
d="M631 1317q-85 0 -137 60.5t-41 146.5t77 145.5t152 59.5q85 0 136.5 -59.5t41.5 -145.5t-77 -146.5t-152 -60.5zM674 1665q-57 0 -103 -40.5t-53 -100.5q-6 -60 29 -101t92 -41t103 41t53 101t-28.5 100.5t-92.5 40.5zM831 0q-19 0 -22 20l-41 209q-2 7 -8 7h-520
q-7 0 -9 -7l-94 -209q-7 -20 -28 -20h-58q-27 0 -14 29l510 1130q11 21 28 21h76q19 0 23 -21l237 -1130q3 -13 -3 -21t-17 -8h-60zM281 336q-3 -3 -1.5 -6.5t5.5 -3.5h452q8 0 8 10l-139 711q-2 5 -6 5t-6 -5z" />
    <glyph glyph-name="atilde.sc" horiz-adv-x="1021" 
d="M563 1460q-32 0 -55 -11t-51 -42q-19 -19 -35 -6l-16 12q-19 16 -3 35q68 94 164 94q23 0 45.5 -8.5t32.5 -15t35 -23.5q3 -2 14 -10t15.5 -11t14.5 -9t16.5 -8.5t16 -4.5t17.5 -2q60 0 105 59q20 20 34 9l17 -13q18 -15 4 -32q-35 -53 -82.5 -79t-89.5 -26
q-51 0 -113 49q-26 23 -44 33t-42 10zM831 0q-19 0 -22 20l-41 209q-2 7 -8 7h-520q-7 0 -9 -7l-94 -209q-7 -20 -28 -20h-58q-27 0 -14 29l510 1130q11 21 28 21h76q19 0 23 -21l237 -1130q3 -13 -3 -21t-17 -8h-60zM281 336q-3 -3 -1.5 -6.5t5.5 -3.5h452q8 0 8 10
l-139 711q-2 5 -6 5t-6 -5z" />
    <glyph glyph-name="ae.sc" horiz-adv-x="1564" 
d="M1559 1108q-4 -25 -27 -25h-576q-10 0 -10 -8l-51 -426q-1 -3 1 -5.5t5 -2.5h387q10 0 16.5 -7t4.5 -18l-4 -47q-1 -10 -9.5 -17t-19.5 -7h-387q-8 0 -8 -8l-54 -433q0 -8 7 -8h577q9 0 15.5 -7t5.5 -17l-7 -47q-4 -25 -26 -25h-668q-10 0 -16 7t-4 18l24 202q0 9 -6 9
h-428q-7 0 -10 -7l-137 -213q-13 -16 -33 -16h-66q-13 0 -16.5 8.5t4.5 20.5l745 1134q14 17 33 17h723q9 0 15.5 -7.5t5.5 -17.5zM360 336q-5 -10 5 -10h374q9 0 9 8l88 713q2 6 -3 6q-4 0 -8 -4z" />
    <glyph glyph-name="b.sc" horiz-adv-x="1069" 
d="M793 614q-4 -1 -5.5 -2.5t-0.5 -3t4 -2.5q86 -37 125.5 -110.5t27.5 -176.5q-20 -151 -126 -235t-263 -84h-403q-10 0 -16.5 7t-4.5 18l137 1130q1 10 9.5 17.5t17.5 7.5h393q159 0 243 -81.5t66 -228.5q-24 -187 -204 -256zM373 1083q-8 0 -8 -8l-52 -413q0 -3 3 -6
t6 -3h307q107 0 179.5 58.5t84.5 152.5q12 100 -46 159.5t-165 59.5h-309zM569 98q108 0 183 63.5t88 168.5q12 103 -48.5 167t-170.5 64h-312q-8 0 -8 -8l-55 -447q0 -8 6 -8h317z" />
    <glyph glyph-name="c.sc" horiz-adv-x="1030" 
d="M483 -16q-182 0 -276 107t-72 288l53 426q22 178 142.5 283.5t300.5 105.5q177 0 271.5 -104.5t72.5 -278.5q0 -9 -8 -16t-19 -7l-57 -2q-23 0 -23 11l2 12q17 131 -52.5 207t-199.5 82q-129 6 -218.5 -74.5t-104.5 -214.5l-55 -436q-15 -133 54 -213t200 -80
q129 0 217.5 80t105.5 213q3 20 27 20l57 -2q9 0 16 -3.5t7 -6.5l-2 -8q-22 -177 -142.5 -283t-296.5 -106z" />
    <glyph glyph-name="cacute.sc" horiz-adv-x="1030" 
d="M600 1346q-13 0 -16.5 8t4.5 20l143 219q14 17 33 17h53q14 0 17.5 -8t-5.5 -21l-153 -219q-11 -16 -31 -16h-45zM483 -16q-182 0 -276 107t-72 288l53 426q22 178 142.5 283.5t300.5 105.5q177 0 271.5 -104.5t72.5 -278.5q0 -9 -8 -16t-19 -7l-57 -2q-23 0 -23 11l2 12
q17 131 -52.5 207t-199.5 82q-129 6 -218.5 -74.5t-104.5 -214.5l-55 -436q-15 -133 54 -213t200 -80q129 0 217.5 80t105.5 213q3 20 27 20l57 -2q9 0 16 -3.5t7 -6.5l-2 -8q-22 -177 -142.5 -283t-296.5 -106z" />
    <glyph glyph-name="ccaron.sc" horiz-adv-x="1030" 
d="M610 1307q-18 0 -26 14l-129 213q-8 12 -2.5 21.5t20.5 9.5h39q17 0 29 -15l106 -176q1 -3 6 -3t6 3l152 176q12 15 29 15h39q15 0 18 -9.5t-8 -21.5l-182 -213q-14 -14 -29 -14h-68zM483 -16q-182 0 -276 107t-72 288l53 426q22 178 142.5 283.5t300.5 105.5
q177 0 271.5 -104.5t72.5 -278.5q0 -9 -8 -16t-19 -7l-57 -2q-23 0 -23 11l2 12q17 131 -52.5 207t-199.5 82q-129 6 -218.5 -74.5t-104.5 -214.5l-55 -436q-15 -133 54 -213t200 -80q129 0 217.5 80t105.5 213q3 20 27 20l57 -2q9 0 16 -3.5t7 -6.5l-2 -8
q-22 -177 -142.5 -283t-296.5 -106z" />
    <glyph glyph-name="ccedilla.sc" horiz-adv-x="1030" 
d="M975 801q-4 -13 -27 -13l-57 -2q-23 0 -23 11l2 12q17 131 -52.5 207t-199.5 82q-129 6 -218.5 -74.5t-104.5 -214.5l-55 -436q-15 -133 54 -213t200 -80q129 0 217.5 80t105.5 213q3 20 27 20l57 -2q9 0 16 -3.5t7 -6.5l-2 -8q-22 -177 -142.5 -283t-296.5 -106
q-9 0 -2 -11q111 -111 70 -233q-20 -58 -65.5 -88.5t-93 -32t-95.5 5.5q-20 7 -14 29l8 22q3 11 12 16.5t19 2.5q52 -11 93.5 6t59.5 68q18 58 -11 116t-87 107q-1 2 -4 4t-4 2q-127 31 -190 131.5t-44 249.5l53 426q22 178 142.5 283.5t300.5 105.5q177 0 271.5 -104.5
t72.5 -278.5v-10z" />
    <glyph glyph-name="cdotaccent.sc" horiz-adv-x="1030" 
d="M653 1372q-35 0 -55 22.5t-16 57.5q5 34 30 56t60 22q33 0 51.5 -22t15.5 -56q-4 -35 -28.5 -57.5t-57.5 -22.5zM483 -16q-182 0 -276 107t-72 288l53 426q22 178 142.5 283.5t300.5 105.5q177 0 271.5 -104.5t72.5 -278.5q0 -9 -8 -16t-19 -7l-57 -2q-23 0 -23 11l2 12
q17 131 -52.5 207t-199.5 82q-129 6 -218.5 -74.5t-104.5 -214.5l-55 -436q-15 -133 54 -213t200 -80q129 0 217.5 80t105.5 213q3 20 27 20l57 -2q9 0 16 -3.5t7 -6.5l-2 -8q-22 -177 -142.5 -283t-296.5 -106z" />
    <glyph glyph-name="d.sc" horiz-adv-x="1050" 
d="M152 0q-10 0 -16.5 7t-4.5 18l137 1130q1 10 9.5 17.5t17.5 7.5h393q165 0 253 -87.5t69 -234.5l-66 -534q-19 -149 -127.5 -236.5t-273.5 -87.5h-391zM246 104q0 -8 6 -8h307q114 0 190 65t91 175l63 508q12 110 -47.5 174.5t-173.5 64.5h-309q-8 0 -8 -8z" />
    <glyph glyph-name="eth.sc" horiz-adv-x="1165" 
d="M803 1180q165 0 252.5 -87.5t68.5 -234.5l-65 -534q-19 -149 -127.5 -236.5t-274.5 -87.5h-391q-10 0 -16 7t-4 18l65 538q0 8 -6 8h-84q-10 0 -16 7t-4 18l4 31q3 24 26 24h84q2 0 5.5 2.5t3.5 5.5l61 496q0 10 8 17.5t19 7.5h391zM954 336l64 508q14 110 -46 174.5
t-175 64.5h-308q-10 0 -10 -8l-51 -416q0 -8 8 -8h201q9 0 15 -7t5 -17l-4 -31q-4 -25 -26 -25h-201q-8 0 -8 -8l-58 -459q0 -8 7 -8h309q113 0 189 65t89 175z" />
    <glyph glyph-name="dcaron.sc" horiz-adv-x="1050" 
d="M614 1300q-14 0 -26 15l-129 213q-6 12 -1.5 21.5t19.5 9.5h41q18 0 27 -15l108 -176q0 -3 5 -3t8 3l149 176q15 15 31 15h39q15 0 18 -9.5t-8 -21.5l-182 -213q-15 -15 -31 -15h-68zM152 0q-10 0 -16.5 7t-4.5 18l137 1130q1 10 9.5 17.5t17.5 7.5h393q165 0 253 -87.5
t69 -234.5l-66 -534q-19 -149 -127.5 -236.5t-273.5 -87.5h-391zM246 104q0 -8 6 -8h307q114 0 190 65t91 175l63 508q12 110 -47.5 174.5t-173.5 64.5h-309q-8 0 -8 -8z" />
    <glyph glyph-name="dcroat.sc" horiz-adv-x="1165" 
d="M803 1180q165 0 252.5 -87.5t68.5 -234.5l-65 -534q-19 -149 -127.5 -236.5t-274.5 -87.5h-391q-10 0 -16 7t-4 18l65 538q0 8 -6 8h-84q-10 0 -16 7t-4 18l4 31q3 24 26 24h84q2 0 5.5 2.5t3.5 5.5l61 496q0 10 8 17.5t19 7.5h391zM954 336l64 508q14 110 -46 174.5
t-175 64.5h-308q-10 0 -10 -8l-51 -416q0 -8 8 -8h201q9 0 15 -7t5 -17l-4 -31q-4 -25 -26 -25h-201q-8 0 -8 -8l-58 -459q0 -8 7 -8h309q113 0 189 65t89 175z" />
    <glyph glyph-name="e.sc" horiz-adv-x="1034" 
d="M1028 1106q-4 -25 -27 -25h-628q-8 0 -8 -8l-54 -424q0 -8 8 -8h441q10 0 16 -7t4 -18l-6 -47q0 -10 -7.5 -17t-18.5 -7h-441q-8 0 -8 -8l-53 -433q0 -8 6 -8h629q9 0 15 -7t5 -17l-6 -47q-4 -25 -27 -25h-716q-10 0 -16.5 7t-4.5 18l137 1130q1 10 9.5 17.5t17.5 7.5
h719q9 0 15 -7.5t5 -17.5z" />
    <glyph glyph-name="eacute.sc" horiz-adv-x="1034" 
d="M807 1614q13 0 16.5 -8t-4.5 -21l-155 -219q-8 -16 -29 -16h-45q-13 0 -17 8t2 20l146 219q10 17 31 17h55zM1028 1106q-4 -25 -27 -25h-628q-8 0 -8 -8l-54 -424q0 -8 8 -8h441q10 0 16 -7t4 -18l-6 -47q0 -10 -7.5 -17t-18.5 -7h-441q-8 0 -8 -8l-53 -433q0 -8 6 -8
h629q9 0 15 -7t5 -17l-6 -47q-4 -25 -27 -25h-716q-10 0 -16.5 7t-4.5 18l137 1130q1 10 9.5 17.5t17.5 7.5h719q9 0 15 -7.5t5 -17.5z" />
    <glyph glyph-name="ecaron.sc" horiz-adv-x="1034" 
d="M694 1325q-11 -14 -28 -14h-68q-16 0 -27 14l-129 213q-6 12 -1 21.5t20 9.5h39q19 0 28 -15l109 -176q0 -3 4.5 -3t5.5 3l152 176q15 15 28 15h41q15 0 18.5 -9.5t-7.5 -21.5zM1028 1106q-4 -25 -27 -25h-628q-8 0 -8 -8l-54 -424q0 -8 8 -8h441q10 0 16 -7t4 -18
l-6 -47q0 -10 -7.5 -17t-18.5 -7h-441q-8 0 -8 -8l-53 -433q0 -8 6 -8h629q9 0 15 -7t5 -17l-6 -47q-4 -25 -27 -25h-716q-10 0 -16.5 7t-4.5 18l137 1130q1 10 9.5 17.5t17.5 7.5h719q9 0 15 -7.5t5 -17.5z" />
    <glyph glyph-name="uni0229.sc" horiz-adv-x="1034" 
d="M1028 1106q-4 -25 -27 -25h-628q-8 0 -8 -8l-54 -424q0 -8 8 -8h441q10 0 16 -7t4 -18l-6 -47q0 -10 -7.5 -17t-18.5 -7h-441q-8 0 -8 -8l-53 -433q0 -8 6 -8h629q9 0 15 -7t5 -17l-6 -47q-4 -25 -27 -25h-344q-5 0 -7 -3t1 -7q115 -112 70 -234q-20 -57 -65.5 -88
t-92.5 -32t-94 6q-20 6 -14 28l6 23q10 23 32 18q52 -11 94 6t58 68q31 103 -84 211q0 4 -8 4h-268q-10 0 -16.5 7t-4.5 18l137 1130q1 10 9.5 17.5t17.5 7.5h719q9 0 15 -7.5t5 -17.5z" />
    <glyph glyph-name="ecircumflex.sc" horiz-adv-x="1034" 
d="M666 1524q-2 3 -6 3t-7 -3l-149 -176q-15 -15 -33 -15h-43q-15 0 -18 9.5t8 21.5l184 213q14 14 33 14h61q18 0 29 -14l133 -213q7 -12 1.5 -21.5t-19.5 -9.5h-43q-16 0 -25 15zM1028 1106q-4 -25 -27 -25h-628q-8 0 -8 -8l-54 -424q0 -8 8 -8h441q10 0 16 -7t4 -18
l-6 -47q0 -10 -7.5 -17t-18.5 -7h-441q-8 0 -8 -8l-53 -433q0 -8 6 -8h629q9 0 15 -7t5 -17l-6 -47q-4 -25 -27 -25h-716q-10 0 -16.5 7t-4.5 18l137 1130q1 10 9.5 17.5t17.5 7.5h719q9 0 15 -7.5t5 -17.5z" />
    <glyph glyph-name="edieresis.sc" horiz-adv-x="1034" 
d="M485 1409q-37 0 -57.5 23.5t-15.5 60.5q5 34 31.5 58t62.5 24q35 0 55 -24t17 -58q-4 -37 -31 -60.5t-62 -23.5zM809 1409q-37 0 -58.5 23.5t-17.5 60.5q5 34 32.5 58t63.5 24q33 0 53 -24t17 -58q-4 -36 -30 -60t-60 -24zM1028 1106q-4 -25 -27 -25h-628q-8 0 -8 -8
l-54 -424q0 -8 8 -8h441q10 0 16 -7t4 -18l-6 -47q0 -10 -7.5 -17t-18.5 -7h-441q-8 0 -8 -8l-53 -433q0 -8 6 -8h629q9 0 15 -7t5 -17l-6 -47q-4 -25 -27 -25h-716q-10 0 -16.5 7t-4.5 18l137 1130q1 10 9.5 17.5t17.5 7.5h719q9 0 15 -7.5t5 -17.5z" />
    <glyph glyph-name="edotaccent.sc" horiz-adv-x="1034" 
d="M641 1376q-35 0 -55 22.5t-17 57.5q4 34 31 56t62 22q32 0 50.5 -22t14.5 -56q-5 -35 -28.5 -57.5t-57.5 -22.5zM1028 1106q-4 -25 -27 -25h-628q-8 0 -8 -8l-54 -424q0 -8 8 -8h441q10 0 16 -7t4 -18l-6 -47q0 -10 -7.5 -17t-18.5 -7h-441q-8 0 -8 -8l-53 -433
q0 -8 6 -8h629q9 0 15 -7t5 -17l-6 -47q-4 -25 -27 -25h-716q-10 0 -16.5 7t-4.5 18l137 1130q1 10 9.5 17.5t17.5 7.5h719q9 0 15 -7.5t5 -17.5z" />
    <glyph glyph-name="egrave.sc" horiz-adv-x="1034" 
d="M670 1378q4 -12 -1.5 -20t-17.5 -8h-47q-19 0 -24 16l-101 219q-6 13 -0.5 21t19.5 8h53q22 0 29 -17zM1028 1106q-4 -25 -27 -25h-628q-8 0 -8 -8l-54 -424q0 -8 8 -8h441q10 0 16 -7t4 -18l-6 -47q0 -10 -7.5 -17t-18.5 -7h-441q-8 0 -8 -8l-53 -433q0 -8 6 -8h629
q9 0 15 -7t5 -17l-6 -47q-4 -25 -27 -25h-716q-10 0 -16.5 7t-4.5 18l137 1130q1 10 9.5 17.5t17.5 7.5h719q9 0 15 -7.5t5 -17.5z" />
    <glyph glyph-name="emacron.sc" horiz-adv-x="1034" 
d="M891 1473q9 0 15 -7.5t5 -17.5l-4 -33q-1 -10 -9 -17t-17 -7h-473q-11 0 -16.5 7t-4.5 17l4 33q0 10 8 17.5t19 7.5h473zM1028 1106q-4 -25 -27 -25h-628q-8 0 -8 -8l-54 -424q0 -8 8 -8h441q10 0 16 -7t4 -18l-6 -47q0 -10 -7.5 -17t-18.5 -7h-441q-8 0 -8 -8l-53 -433
q0 -8 6 -8h629q9 0 15 -7t5 -17l-6 -47q-4 -25 -27 -25h-716q-10 0 -16.5 7t-4.5 18l137 1130q1 10 9.5 17.5t17.5 7.5h719q9 0 15 -7.5t5 -17.5z" />
    <glyph glyph-name="eogonek.sc" horiz-adv-x="1034" 
d="M1028 1106q-4 -25 -27 -25h-628q-8 0 -8 -8l-54 -424q0 -8 8 -8h441q10 0 16 -7t4 -18l-6 -47q0 -10 -7.5 -17t-18.5 -7h-441q-8 0 -8 -8l-53 -433q0 -8 6 -8h629q9 0 15 -7t5 -17l-6 -47q-4 -25 -27 -25h-354q-6 0 -10 -4q-138 -107 -133 -209q4 -51 41.5 -68t93.5 -6
q21 5 24 -18l2 -21q3 -23 -20 -30q-34 -9 -72 -7t-69.5 11t-54.5 37.5t-27 72.5q-13 121 123 232q10 10 -2 10h-258q-10 0 -16.5 7t-4.5 18l137 1130q1 10 9.5 17.5t17.5 7.5h719q9 0 15 -7.5t5 -17.5z" />
    <glyph glyph-name="f.sc" horiz-adv-x="964" 
d="M1026 1108q-4 -25 -27 -25h-626q-8 0 -8 -8l-54 -426q0 -8 8 -8h439q10 0 16 -7t4 -18l-4 -47q-1 -10 -9.5 -17t-19.5 -7h-438q-8 0 -8 -8l-63 -512q-4 -25 -27 -25h-57q-10 0 -16.5 7t-4.5 18l137 1130q1 10 9.5 17.5t17.5 7.5h717q9 0 15 -7.5t5 -17.5z" />
    <glyph glyph-name="g.sc" horiz-adv-x="1073" 
d="M504 -14q-188 0 -286 108.5t-75 302.5l50 387q23 194 147 302t313 108q184 0 282 -106.5t75 -294.5q-3 -23 -27 -23h-57q-10 0 -17.5 3.5t-5.5 8.5v11q18 147 -52.5 227t-209.5 80q-140 0 -233 -82.5t-111 -237.5l-47 -385q-20 -150 53 -231.5t213 -81.5q139 0 229.5 81
t110.5 232l10 90q0 9 -6 9h-256q-9 0 -15 7t-5 17l6 47q4 25 26 25h345q10 0 16 -7t4 -18l-20 -168q-24 -194 -147.5 -302.5t-309.5 -108.5z" />
    </font>
</defs>
</svg>
