<?xml version="1.0" standalone="no"?>
<!DOCTYPE svg PUBLIC "-//W3C//DTD SVG 1.1//EN" "http://www.w3.org/Graphics/SVG/1.1/DTD/svg11.dtd" >
<svg xmlns="http://www.w3.org/2000/svg" xmlns:xlink="http://www.w3.org/1999/xlink" version="1.1">
<metadata>
Created by FontForge 20170731 at Mon Jan 18 07:24:00 2021
 By Aleksey,,,
Copyright 2017 The Barlow Project Authors (https://github.com/jpt/barlow)
</metadata>
<defs>
<font id="Barlow-SemiBoldItalic" horiz-adv-x="0" >
  <font-face 
    font-family="Barlow SemiBold"
    font-weight="600"
    font-style="italic"
    font-stretch="normal"
    units-per-em="2048"
    panose-1="0 0 7 0 0 0 0 0 0 0"
    ascent="1638"
    descent="-410"
    x-height="1047"
    cap-height="1434"
    bbox="-1130.26 -473 2300.76 2009"
    underline-thickness="102"
    underline-position="-307"
    slope="-7"
    unicode-range="U+000D-25CA"
  />
<missing-glyph horiz-adv-x="901" 
d="M-39 12q0 -12 10 -12h879q11 0 14 12l172 1409q3 13 -10 13h-879q-12 0 -12 -13zM406 500q-32 0 -29 32l6 46q7 55 38 98t70.5 71t79.5 54.5t70 62.5t35 80q7 57 -27 91t-96 34q-67 0 -110.5 -35.5t-51.5 -93.5l-2 -14q-2 -15 -12 -24.5t-23 -8.5l-100 6q-32 3 -29 23
l2 18q15 127 111.5 206t236.5 79q137 0 210.5 -75.5t58.5 -199.5q-7 -57 -31.5 -103.5t-55.5 -74.5t-67 -54.5t-66 -45.5t-51.5 -46.5t-25.5 -58.5l-4 -35q-6 -32 -37 -32h-100zM424 184q-44 0 -71 31.5t-21 75.5q4 43 40.5 73.5t80.5 30.5q43 0 70.5 -30.5t23.5 -73.5
q-6 -44 -42.5 -75.5t-80.5 -31.5z" />
    <glyph glyph-name="I_J.liga" unicode="IJ" horiz-adv-x="1687" 
d="M137 0q-31 0 -28 33l167 1368q7 33 37 33h166q32 0 29 -33l-168 -1368q-1 -15 -11.5 -24t-25.5 -9h-166zM1012 -16q-220 0 -339.5 124t-94.5 328l10 78q1 15 11 24t24 9h168q15 0 22 -9t4 -24l-8 -78q-14 -111 48.5 -179.5t178.5 -68.5q117 0 196 68.5t93 179.5l119 965
q1 15 11 24t24 9h168q14 0 21.5 -9t4.5 -24l-119 -965q-25 -204 -174 -328t-368 -124z" />
    <glyph glyph-name="f_f_i.liga" unicode="ffi" horiz-adv-x="1906" 
d="M1759 1171q-66 0 -102.5 42t-28.5 108q7 66 54.5 106.5t113.5 40.5q65 0 100.5 -40.5t28.5 -106.5q-9 -66 -54.5 -108t-111.5 -42zM1198 1104l-6 -45q0 -12 12 -12h199q14 0 21 -9t6 -24l-17 -127q-3 -33 -35 -33h-198q-12 0 -15 -12l-98 -809q-1 -15 -11.5 -24t-25.5 -9
h-166q-31 0 -28 33l100 809q0 12 -10 12h-414q-11 0 -14 -12l-99 -809q-1 -15 -10.5 -24t-23.5 -9h-168q-32 0 -29 33l100 809q0 12 -10 12h-104q-14 0 -21 9t-6 24l16 127q3 33 35 33h103q11 0 14 12l8 65q21 168 114.5 242.5t293.5 67.5h59q32 0 29 -33l-13 -98
q-7 -33 -36 -33h-60q-81 -3 -115.5 -43t-44.5 -123l-4 -45q-3 -12 11 -12h411q12 0 15 12l8 65q21 168 114 242.5t293 67.5h60q15 0 22 -9t4 -24l-10 -98q-7 -33 -37 -33h-59q-81 -3 -115.5 -43t-44.5 -123zM1532 0q-32 0 -29 33l121 981q1 15 11.5 24t25.5 9h166
q31 0 28 -33l-120 -981q-1 -15 -11.5 -24t-25.5 -9h-166z" />
    <glyph glyph-name="f_f_l.liga" unicode="ffl" horiz-adv-x="1882" 
d="M1198 1104l-6 -45q0 -12 12 -12h199q14 0 21 -9t6 -24l-17 -127q-3 -33 -35 -33h-198q-12 0 -15 -12l-98 -809q-1 -15 -11.5 -24t-25.5 -9h-166q-31 0 -28 33l100 809q0 12 -10 12h-414q-11 0 -14 -12l-99 -809q-1 -15 -10.5 -24t-23.5 -9h-168q-32 0 -29 33l100 809
q0 12 -10 12h-104q-14 0 -21 9t-6 24l16 127q3 33 35 33h103q11 0 14 12l8 65q21 168 114.5 242.5t293.5 67.5h59q32 0 29 -33l-13 -98q-7 -33 -36 -33h-60q-81 -3 -115.5 -43t-44.5 -123l-4 -45q-3 -12 11 -12h411q12 0 15 12l8 65q21 168 114 242.5t293 67.5h60
q15 0 22 -9t4 -24l-10 -98q-7 -33 -37 -33h-59q-81 -3 -115.5 -43t-44.5 -123zM1657 1401q3 33 35 33h168q29 0 26 -33l-168 -1368q-1 -15 -11 -24t-24 -9h-167q-15 0 -22.5 9t-4.5 24z" />
    <glyph glyph-name="f_i.liga" unicode="fi" horiz-adv-x="1253" 
d="M1106 1178q-66 0 -102.5 41.5t-28.5 107.5q8 65 55 106.5t113 41.5q65 0 101 -41.5t28 -106.5q-7 -66 -53.5 -107.5t-112.5 -41.5zM733 1049q14 0 22 -9t5 -24l-17 -146q-6 -32 -36 -32h-187q-11 0 -14 -13l-96 -792q-1 -15 -11.5 -24t-25.5 -9h-166q-32 0 -29 33l98 792
q0 13 -10 13h-114q-30 0 -27 32l18 146q3 33 35 33h113q11 0 14 12l4 35q25 195 112 267.5t294 70.5h61q15 0 22.5 -9t4.5 -24l-15 -127q-2 -15 -11.5 -24t-24.5 -9h-43q-86 0 -123 -35t-47 -127l-4 -18q0 -12 12 -12h186zM879 0q-32 0 -29 33l121 981q1 15 11 24t24 9h168
q31 0 28 -33l-121 -981q-7 -33 -37 -33h-165z" />
    <glyph glyph-name="f_l.liga" unicode="fl" horiz-adv-x="1228" 
d="M733 1049q14 0 22 -9t5 -24l-17 -146q-6 -32 -36 -32h-187q-11 0 -14 -13l-96 -792q-1 -15 -11.5 -24t-25.5 -9h-166q-32 0 -29 33l98 792q0 13 -10 13h-114q-30 0 -27 32l18 146q3 33 35 33h113q11 0 14 12l4 35q25 195 112 267.5t294 70.5h61q15 0 22.5 -9t4.5 -24
l-15 -127q-2 -15 -11.5 -24t-24.5 -9h-43q-86 0 -123 -35t-47 -127l-4 -18q0 -12 12 -12h186zM864 0q-31 0 -28 33l168 1368q7 33 36 33h166q32 0 29 -33l-168 -1368q-1 -15 -11.5 -24t-25.5 -9h-166z" />
    <glyph glyph-name="g_j.liga" unicode="gj" horiz-adv-x="1566" 
d="M1434 1174q-67 0 -103 42t-28 107q7 61 56.5 103t110.5 42q60 0 99.5 -42.5t32.5 -102.5q-9 -65 -56 -107t-112 -42zM811 971q10 -13 14 6l4 37q1 15 11.5 24t25.5 9h166q32 0 29 -33l-117 -944q-11 -87 -38 -159t-66.5 -122.5t-90 -89t-108 -59.5t-122 -34t-130.5 -12.5
t-133 5.5q-26 3 -23 36l25 152q1 15 12.5 23t26.5 6q197 -18 297 40t121 220l2 12q0 18 -15 6q-91 -88 -239 -88q-128 0 -226.5 68t-123.5 207q-14 87 4 247q22 172 63 260q55 124 162 199.5t238 75.5q152 0 231 -92zM1169 -35l129 1049q1 15 11.5 24t25.5 9h166
q32 0 29 -33l-129 -1047q-26 -209 -138.5 -299t-334.5 -88q-32 0 -29 33l19 133q6 33 36 33q90 3 147.5 50t67.5 136zM733 348q24 57 37 182q15 117 6 179q-6 67 -51 108t-119 41q-73 0 -127.5 -41t-83.5 -108q-30 -58 -47 -181q-14 -130 -2 -178q13 -66 59.5 -107.5
t120.5 -41.5q78 0 131 40.5t76 106.5z" />
    <glyph glyph-name="i_j.liga" unicode="ij" horiz-adv-x="970" 
d="M358 1178q-65 0 -101.5 41.5t-27.5 107.5q8 65 54 106.5t112 41.5q65 0 101 -41.5t28 -106.5q-7 -66 -53.5 -107.5t-112.5 -41.5zM838 1171q-65 0 -101 43t-28 107q7 62 56 104.5t109 42.5q61 0 100 -42.5t32 -104.5q-8 -64 -55.5 -107t-112.5 -43zM131 0q-32 0 -29 33
l121 981q7 33 37 33h166q32 0 29 -33l-121 -981q-1 -15 -11 -24t-24 -9h-168zM324 -420q-15 0 -22.5 9t-4.5 24l16 135q3 34 37 31q108 0 159.5 44t63.5 142l129 1049q1 15 11.5 24t25.5 9h166q32 0 29 -33l-129 -1047q-26 -217 -131.5 -303.5t-349.5 -83.5z" />
    <glyph glyph-name="hyphen_hyphen.liga" unicode="&#x2d;&#x2d;" horiz-adv-x="1327" 
d="M117 506q-14 0 -21 9t-6 24l16 137q1 15 11.5 24t25.5 9h1135q32 0 29 -33l-17 -137q-1 -15 -11.5 -24t-25.5 -9h-1136z" />
    <glyph glyph-name=".notdef" horiz-adv-x="901" 
d="M-39 12q0 -12 10 -12h879q11 0 14 12l172 1409q3 13 -10 13h-879q-12 0 -12 -13zM406 500q-32 0 -29 32l6 46q7 55 38 98t70.5 71t79.5 54.5t70 62.5t35 80q7 57 -27 91t-96 34q-67 0 -110.5 -35.5t-51.5 -93.5l-2 -14q-2 -15 -12 -24.5t-23 -8.5l-100 6q-32 3 -29 23
l2 18q15 127 111.5 206t236.5 79q137 0 210.5 -75.5t58.5 -199.5q-7 -57 -31.5 -103.5t-55.5 -74.5t-67 -54.5t-66 -45.5t-51.5 -46.5t-25.5 -58.5l-4 -35q-6 -32 -37 -32h-100zM424 184q-44 0 -71 31.5t-21 75.5q4 43 40.5 73.5t80.5 30.5q43 0 70.5 -30.5t23.5 -73.5
q-6 -44 -42.5 -75.5t-80.5 -31.5z" />
    <glyph glyph-name=".null" 
 />
    <glyph glyph-name="nonmarkingreturn" horiz-adv-x="682" 
 />
    <glyph glyph-name="CR" unicode="&#xd;" horiz-adv-x="397" 
 />
    <glyph glyph-name="space" unicode=" " horiz-adv-x="397" 
 />
    <glyph glyph-name="exclam" unicode="!" horiz-adv-x="671" 
d="M293 483q-30 0 -27 33l86 885q6 33 37 33h166q32 0 29 -33l-131 -885q-3 -33 -35 -33h-125zM291 4q-68 0 -107.5 46t-31.5 112q7 65 61 111t117 46q64 0 107 -46t36 -111q-8 -65 -61 -111.5t-121 -46.5z" />
    <glyph glyph-name="quotedbl" unicode="&#x22;" horiz-adv-x="645" 
d="M176 977q-31 0 -31 33l29 385q0 32 33 32h160q30 0 24 -32l-65 -385q-9 -33 -39 -33h-111zM522 977q-28 0 -28 33l26 385q3 32 35 32h158q32 0 26 -32l-67 -385q-6 -33 -37 -33h-113z" />
    <glyph glyph-name="numbersign" unicode="#" horiz-adv-x="1345" 
d="M1300 879q-6 -33 -36 -33h-138q-11 0 -14 -10l-68 -244q-6 -12 11 -12h104q32 0 29 -33l-17 -137q-7 -33 -36 -33h-138q-11 0 -14 -10l-80 -289q-7 -31 -37 -31l-168 2q-15 0 -21 10t-1 25l76 281q6 12 -11 12h-231q-9 0 -16 -10l-78 -289q-10 -31 -39 -31l-166 2
q-35 0 -25 35l78 281q3 12 -12 12h-102q-32 0 -29 33l18 137q3 33 35 33h135q9 0 17 12l65 242q3 12 -10 12h-100q-32 0 -29 33l18 139q1 15 11 24t24 9h133q10 0 17 10l77 289q7 30 39 30l166 -2q35 0 25 -35l-78 -280q-3 -12 10 -12h234q11 0 14 10l80 289q7 30 37 30
l168 -2q15 0 21 -10t1 -25l-75 -280q-3 -12 10 -12h106q32 0 29 -33zM799 580q10 0 14 12l66 242q6 12 -11 12h-229q-9 0 -16 -10l-68 -244q-3 -12 10 -12h234z" />
    <glyph glyph-name="dollar" unicode="$" horiz-adv-x="1091" 
d="M1014 391q-21 -167 -132.5 -275t-293.5 -126q-15 -4 -15 -15l-10 -100q-6 -33 -37 -33h-90q-31 0 -28 33l14 100q0 13 -10 15q-165 20 -248 117.5t-66 246.5l11 84q7 33 36 33h162q32 0 29 -31l-4 -32q-11 -95 43.5 -157.5t165.5 -62.5q106 0 168 54t73 137
q5 43 -14.5 78t-63 63t-90 51.5t-113.5 57.5t-116 67q-73 47 -116.5 92t-67 113t-13.5 156q20 160 124.5 262t273.5 125q14 4 14 14l12 115q3 33 35 33h88q32 0 29 -33l-16 -113q0 -12 10 -14q177 -17 262 -119t65 -262l-6 -64q-6 -32 -37 -32h-161q-32 0 -29 24l2 23
q11 100 -40 164.5t-165 64.5q-98 0 -159.5 -47.5t-71.5 -132.5q-4 -35 7 -63.5t30 -48t55 -40t67.5 -34l84 -36t88.5 -40.5q153 -75 217 -174.5t47 -237.5z" />
    <glyph glyph-name="percent" unicode="%" horiz-adv-x="1654" 
d="M512 827q-128 0 -205.5 92t-60.5 222q15 129 115 220t229 91q125 0 203 -91t63 -220q-17 -131 -117 -222.5t-227 -91.5zM358 0q-19 0 -24 11t6 28l909 1372q14 23 41 23h99q17 0 21.5 -11t-5.5 -28l-907 -1372q-16 -23 -41 -23h-99zM528 954q73 0 131.5 55t69.5 132
q9 76 -36.5 130t-119.5 54t-132.5 -54t-67.5 -130q-9 -78 36 -132.5t119 -54.5zM1174 -18q-127 0 -205.5 91.5t-61.5 221.5q15 129 115.5 220t228.5 91q125 0 203.5 -91.5t61.5 -219.5q-15 -130 -114.5 -221.5t-227.5 -91.5zM1190 109q73 0 131.5 54.5t67.5 131.5t-36 130.5
t-118 53.5q-75 0 -133.5 -53.5t-67.5 -130.5q-10 -78 35.5 -132t120.5 -54z" />
    <glyph glyph-name="ampersand" unicode="&#x26;" horiz-adv-x="1368" 
d="M1212 39q12 -15 5 -27t-27 -12h-184q-27 0 -37 18q-48 62 -72 97q-8 8 -18 2q-198 -133 -416 -133q-88 0 -159.5 21t-123.5 62.5t-76.5 110t-13.5 156.5q9 73 38 136t76 113t96 88t114 77q8 5 4 16q-89 127 -115 194t-18 134q20 161 136 259.5t288 98.5q173 0 272 -97.5
t80 -254.5q-8 -67 -36.5 -124.5t-75 -104t-94 -81.5t-112.5 -73q-13 -7 -6 -17q42 -58 197 -264q2 -4 7 -4t9 4q68 70 135 156q21 27 45 10l115 -72q26 -16 4 -45q-93 -120 -184 -215q-11 -8 2 -24q28 -40 77.5 -109.5t67.5 -95.5zM688 1233q-71 0 -118 -38.5t-54 -102.5
q-5 -34 13.5 -77t82.5 -138q8 -11 17 -5q92 57 142.5 108.5t57.5 113.5q7 64 -32 101.5t-109 37.5zM528 186q110 12 232 90q9 9 2 19q-55 77 -107 143q-18 24 -37.5 50.5t-40.5 56t-32 43.5q-6 9 -17 2q-181 -112 -204 -236q-15 -86 41 -132t163 -36z" />
    <glyph glyph-name="quotesingle" unicode="'" horiz-adv-x="307" 
d="M176 983q-32 0 -29 33l27 383q0 15 9.5 24t23.5 9h170q14 0 22 -9.5t4 -23.5l-67 -383q-9 -33 -39 -33h-121z" />
    <glyph glyph-name="parenleft" unicode="(" horiz-adv-x="628" 
d="M209 -197q-25 0 -37 21q-89 155 -127 372.5t-6 479.5q32 264 125 485t221 375q17 20 41 20h158q19 0 24 -10.5t-6 -27.5q-108 -161 -191 -377t-114 -465q-30 -245 0 -458t98 -376q7 -17 0 -28t-26 -11h-160z" />
    <glyph glyph-name="parenright" unicode=")" horiz-adv-x="628" 
d="M332 -176q-18 -21 -41 -21h-160q-19 0 -24 11t6 28q108 162 190.5 375t112.5 459q31 249 1.5 464.5t-98.5 377.5q-6 17 1 27.5t26 10.5h160q24 0 35 -20q90 -154 128.5 -375t6.5 -485q-32 -261 -124.5 -478.5t-219.5 -373.5z" />
    <glyph glyph-name="asterisk" unicode="*" horiz-adv-x="790" 
d="M418 805q-14 0 -21 9t-6 24l25 194q0 6 -4.5 9t-10.5 -1l-186 -104q-32 -16 -43 12l-27 70q-13 29 17 45l186 98q18 9 2 17l-162 94q-24 15 -6 45l43 69q18 30 45 13l164 -103q5 -4 9 -1t6 10l22 192q7 33 37 33h72q15 0 22 -9t4 -24l-22 -192q-2 -6 2 -9.5t10 0.5
l188 103q32 18 41 -13l29 -69q8 -28 -18 -43l-189 -96q-15 -7 -2 -17l164 -98q28 -15 8 -45l-45 -70q-18 -29 -45 -12l-162 104q-12 9 -16 -8l-23 -194q-1 -15 -11.5 -24t-25.5 -9h-71z" />
    <glyph glyph-name="plus" unicode="+" horiz-adv-x="974" 
d="M928 727q15 0 22 -9t4 -24l-16 -139q-1 -15 -11 -24t-24 -9h-280q-12 0 -15 -12l-35 -285q-1 -15 -10.5 -23.5t-23.5 -8.5h-133q-32 0 -29 32l35 285q2 5 -1.5 8.5t-9.5 3.5h-282q-14 0 -21 9t-6 24l17 139q2 15 11.5 24t24.5 9h281q14 0 14 12l37 293q3 33 35 33h133
q32 0 29 -33l-37 -293q0 -12 10 -12h281z" />
    <glyph glyph-name="comma" unicode="," horiz-adv-x="526" 
d="M66 -186q-15 0 -21.5 9.5t-1.5 24.5l125 443q10 31 39 31h143q15 0 21 -10t0 -27l-168 -443q-9 -28 -39 -28h-98z" />
    <glyph glyph-name="hyphen" unicode="-" horiz-adv-x="802" 
d="M119 514q-32 0 -29 33l19 139q1 15 10.5 24t23.5 9h611q31 0 28 -33l-18 -139q-1 -15 -11 -24t-24 -9h-610z" />
    <glyph glyph-name="period" unicode="." horiz-adv-x="536" 
d="M223 -2q-68 0 -107.5 45.5t-31.5 112.5q7 63 61.5 109t116.5 46q64 0 108.5 -46t35.5 -109q-8 -66 -60.5 -112t-122.5 -46z" />
    <glyph glyph-name="slash" unicode="/" horiz-adv-x="821" 
d="M43 0q-35 0 -20 37l647 1370q14 27 41 27h161q38 0 23 -37l-647 -1370q-14 -27 -41 -27h-164z" />
    <glyph glyph-name="zero" unicode="0" horiz-adv-x="1128" 
d="M520 -23q-209 0 -316 122t-81 329l70 578q26 205 162 324.5t345 119.5q210 0 319 -120t83 -324l-70 -578q-26 -207 -164.5 -329t-347.5 -122zM545 184q103 0 173 63t83 169l71 598q13 106 -40 168.5t-156 62.5q-101 0 -170 -62.5t-82 -168.5l-74 -598q-12 -106 41 -169
t154 -63z" />
    <glyph glyph-name="one" unicode="1" horiz-adv-x="677" 
d="M428 1425q18 9 39 9h178q15 0 22.5 -9t4.5 -24l-168 -1368q-3 -33 -35 -33h-168q-14 0 -21 9t-6 24l144 1161q0 14 -15 10l-190 -53q-17 -4 -26 4t-7 25l15 118q3 24 28 37z" />
    <glyph glyph-name="two" unicode="2" horiz-adv-x="1093" 
d="M92 0q-32 0 -29 33l17 135q3 22 20 39q80 78 165.5 166t187 193.5t151.5 156.5q210 220 223 332q9 85 -41.5 137.5t-142.5 52.5t-154 -53t-73 -141l-6 -45q-1 -15 -11.5 -24t-25.5 -9h-168q-32 0 -29 33l10 79q27 165 162 265t322 100q198 0 304.5 -111.5t84.5 -279.5
q-20 -169 -219 -387q-113 -127 -439 -453q-6 -6 -3.5 -10t10.5 -4h546q32 0 29 -33l-18 -139q-3 -33 -35 -33h-838z" />
    <glyph glyph-name="three" unicode="3" horiz-adv-x="1054" 
d="M961 682q26 -103 12 -225q-12 -93 -62 -203q-60 -128 -174 -199t-264 -71q-147 0 -246 76.5t-129 207.5q-15 74 -8 158q1 15 11 24t24 9h170q32 0 29 -33q0 -69 4 -96q12 -66 56.5 -104t113.5 -38q131 0 194 123q37 64 47 152q12 103 -12 174q-35 115 -162 115
q-33 0 -82 -27q-29 -14 -43 8l-71 109q-12 25 10 47l360 325q6 6 5 10.5t-9 4.5h-493q-14 0 -21 9t-6 24l16 139q1 15 11.5 24t25.5 9h776q15 0 22.5 -9t4.5 -24l-18 -154q-3 -23 -21 -41l-321 -297q-5 -5 -2 -10t10 -6q185 -28 242 -211z" />
    <glyph glyph-name="four" unicode="4" horiz-adv-x="1163" 
d="M1061 590q32 0 29 -33l-19 -147q-1 -15 -11 -24t-24 -9h-71q-12 0 -15 -12l-41 -332q-3 -33 -35 -33h-167q-14 0 -21 9t-6 24l41 332q0 12 -10 12h-596q-32 0 -29 33l14 118q3 18 13 39l477 842q14 25 39 25h176q39 0 20 -39l-444 -791q-8 -14 8 -14h346q12 0 15 12
l32 268q1 15 11 24t24 9h168q32 0 29 -33l-35 -268q0 -12 12 -12h70z" />
    <glyph glyph-name="five" unicode="5" horiz-adv-x="1052" 
d="M989 643q13 -92 2 -190q-14 -106 -49 -183q-57 -130 -176.5 -207t-269.5 -77q-148 0 -248.5 74.5t-128.5 201.5q-10 54 -13 94q0 17 9.5 26t25.5 9h172q25 0 31 -22q0 -3 1 -8t1 -7q1 -4 2 -11t2 -11q12 -66 56 -104t114 -38q69 0 123.5 40.5t81.5 107.5q27 60 31 111
q8 66 0 120q-4 68 -50.5 104t-121.5 36q-62 0 -114.5 -26t-82.5 -75q-15 -24 -39 -24h-180q-32 0 -29 32l97 785q2 15 11.5 24t24.5 9h756q32 0 29 -33l-19 -139q-3 -33 -34 -33h-547q-11 0 -15 -12l-45 -365q-1 -7 3 -9t10 3q103 69 231 69q139 0 232.5 -72t115.5 -200z
" />
    <glyph glyph-name="six" unicode="6" horiz-adv-x="1050" 
d="M967 707q41 -105 22 -254q-16 -130 -67 -220q-62 -118 -171.5 -182.5t-252.5 -64.5q-148 0 -246 70.5t-127 197.5q-20 86 -8 201l78 624q20 168 150 269.5t321 101.5q185 0 287.5 -99.5t82.5 -260.5l-6 -37q-3 -33 -35 -33h-166q-33 0 -30 20l2 19q11 82 -35 134t-129 52
q-84 0 -144.5 -53.5t-70.5 -140.5l-29 -222q0 -15 15 -6q96 82 237 82q118 0 201 -51t121 -147zM711 303q38 62 47 146q12 86 -15 157q-42 99 -159 99q-124 0 -189 -103q-39 -64 -49 -160q-10 -82 8 -137q38 -112 166 -112q125 0 191 110z" />
    <glyph glyph-name="seven" unicode="7" horiz-adv-x="968" 
d="M238 0q-36 0 -21 37l578 1177q7 15 -7 15h-423q-4 0 -8.5 -3.5t-4.5 -8.5l-10 -82q-1 -15 -11.5 -24t-25.5 -9h-127q-29 0 -26 33l32 266q1 15 11 24t24 9h821q15 0 22.5 -9t4.5 -24l-18 -152q0 -9 -13 -39l-577 -1183q-13 -27 -41 -27h-180z" />
    <glyph glyph-name="eight" unicode="8" horiz-adv-x="1058" 
d="M961 621q31 -87 16 -209q-16 -129 -78 -222q-61 -96 -169.5 -151t-244.5 -55q-133 0 -227 55t-135 160q-39 99 -25 215q14 114 72 211q45 75 125 129q13 9 2 16q-56 44 -84 104q-40 86 -29 191q15 125 88 217q66 84 169.5 130t226.5 46q138 0 231.5 -53t132.5 -156
q34 -84 23 -186q-11 -96 -72 -180q-46 -61 -117 -113q-17 -7 -2 -14q72 -52 97 -135zM451 1155q-31 -45 -41 -115q-8 -65 16 -122q45 -89 164 -89q121 0 190 95q36 47 45 118q7 66 -10 109q-46 104 -172 104q-128 0 -192 -100zM686 268q49 61 64 168q6 63 -9 117
q-31 119 -170 119q-127 0 -194 -117q-33 -62 -39 -123q-12 -100 16 -158q43 -90 158 -90q112 0 174 84z" />
    <glyph glyph-name="nine" unicode="9" horiz-adv-x="1046" 
d="M1020 1180q19 -80 6 -201l-76 -625q-22 -168 -151.5 -269t-319.5 -101q-186 0 -288 99.5t-82 260.5l4 37q1 15 10.5 24t23.5 9h168q32 0 29 -19l-2 -20q-10 -82 36 -134.5t128 -52.5q84 0 145.5 54t71.5 141l27 221q1 7 -3 9t-12 -3q-94 -82 -237 -82q-116 0 -199 51.5
t-123 147.5q-38 99 -22 254q15 122 67 219q62 118 172.5 183t253.5 65q148 0 245 -70.5t128 -197.5zM748 831q39 64 49 160q9 80 -9 137q-35 113 -165 113q-124 0 -191 -111q-38 -62 -47 -145q-10 -95 14 -158q45 -98 162 -98q125 0 187 102z" />
    <glyph glyph-name="colon" unicode=":" horiz-adv-x="704" 
d="M399 694q-69 0 -109 46t-32 112q7 65 62 111.5t118 46.5q64 0 107.5 -46.5t36.5 -111.5q-8 -65 -61 -111.5t-122 -46.5zM315 18q-68 0 -108.5 45.5t-32.5 112.5q7 63 62 109.5t118 46.5q64 0 108.5 -46.5t35.5 -109.5q-8 -66 -61 -112t-122 -46z" />
    <glyph glyph-name="semicolon" unicode=";" horiz-adv-x="624" 
d="M358 666q-70 0 -110 46t-31 113q7 64 61.5 110t118.5 46q63 0 106 -46.5t36 -109.5q-7 -66 -60 -112.5t-121 -46.5zM137 -182q-15 0 -22 10t-4 25l98 432q9 30 39 30h145q32 0 23 -36l-150 -433q-8 -28 -37 -28h-92z" />
    <glyph glyph-name="less" unicode="&#x3c;" horiz-adv-x="974" 
d="M885 104q-1 -19 -13.5 -26.5t-27.5 0.5l-740 366q-23 13 -20 37l20 154q3 25 29 37l830 366q17 7 26 0t6 -26l-18 -160q-3 -24 -29 -37l-600 -248q-8 -3 -8.5 -8t6.5 -8l539 -250q23 -11 20 -37z" />
    <glyph glyph-name="equal" unicode="=" horiz-adv-x="974" 
d="M145 723q-31 0 -28 33l16 139q7 33 37 33h782q32 0 29 -33l-18 -139q-1 -15 -11 -24t-24 -9h-783zM94 317q-15 0 -22 9t-4 24l16 139q1 15 11 24t24 9h784q14 0 21 -9t6 -24l-17 -139q-2 -15 -11.5 -24t-24.5 -9h-783z" />
    <glyph glyph-name="greater" unicode="&#x3e;" horiz-adv-x="974" 
d="M72 78q-19 -7 -28.5 0t-6.5 26l18 160q6 25 29 37l602 250q7 3 7.5 8t-5.5 8l-541 248q-21 12 -18 37l18 160q3 19 14.5 26t26.5 0l740 -366q23 -11 20 -37l-18 -154q-3 -24 -29 -37z" />
    <glyph glyph-name="question" unicode="?" horiz-adv-x="993" 
d="M391 438q-15 0 -22 9t-4 24l8 76q7 57 32 104.5t59.5 80.5t75 63t80.5 57.5t74 56.5t58 68t30 84q9 80 -38.5 128t-135.5 48q-91 0 -152.5 -51t-72.5 -131l-4 -35q-2 -15 -11 -23.5t-24 -7.5l-166 8q-31 3 -28 31l4 27q22 178 157 288.5t330 110.5q192 0 295.5 -106
t81.5 -279q-9 -69 -35.5 -127t-62 -96.5t-77 -71t-82 -59.5t-74.5 -53t-57 -59t-28 -71l-8 -61q-1 -15 -11 -24t-24 -9h-168zM430 -2q-61 0 -99 42.5t-32 104.5q7 61 57 104.5t113 43.5q61 0 100.5 -43.5t32.5 -104.5t-58.5 -104t-113.5 -43z" />
    <glyph glyph-name="at" unicode="@" horiz-adv-x="1632" 
d="M1026 1317q206 0 347.5 -92.5t190 -254t-0.5 -380.5q-48 -196 -155 -305t-257 -109q-142 0 -199 88q-10 10 -16 0q-86 -86 -213 -86q-110 0 -173.5 56t-66.5 145q-2 61 29 176q25 107 57 172q46 98 129 151.5t174 53.5q102 0 146 -62q3 -3 6.5 -3.5t6 1.5t3.5 6l4 19
q9 31 39 31h90q15 0 22.5 -10t4.5 -25l-98 -387q-19 -74 4.5 -125t83.5 -51q71 0 125.5 66.5t87.5 189.5q70 275 -43 430t-357 155q-163 0 -309.5 -72t-256 -217t-148.5 -339q-53 -257 57.5 -415.5t345.5 -158.5q91 0 179 22t143 54q29 16 43 -6l39 -58q18 -28 -11 -47
q-78 -54 -196 -86t-238 -32q-143 0 -256.5 53.5t-182 151t-91.5 235.5t14 307q28 137 91.5 257.5t150.5 211.5t193 156.5t224 99t238 33.5zM752 317q48 0 87 29.5t64 75.5q25 42 47 135q17 79 21 133q3 45 -25 74t-78 29q-49 0 -90 -28.5t-67 -74.5q-21 -39 -47 -141
q-24 -94 -21 -127q-2 -47 28 -76t81 -29z" />
    <glyph glyph-name="A" unicode="A" horiz-adv-x="1288" 
d="M975 0q-27 0 -33 27l-35 211q0 10 -12 10h-520q-12 0 -17 -10l-86 -211q-12 -27 -41 -27h-180q-15 0 -20.5 10t0.5 27l594 1370q12 27 39 27h231q27 0 33 -27l258 -1370q3 -17 -5.5 -27t-23.5 -10h-182zM446 449q-6 -15 9 -15h405q12 0 12 15l-120 696q-1 5 -4 6.5t-6 0
t-5 -6.5z" />
    <glyph glyph-name="B" unicode="B" horiz-adv-x="1234" 
d="M979 750q-9 -3 -9.5 -8.5t5.5 -8.5q188 -98 158 -336q-24 -194 -162 -295.5t-342 -101.5h-492q-31 0 -28 33l167 1368q7 33 37 33h478q215 0 321 -96t82 -291q-26 -211 -215 -297zM498 1229q-13 0 -13 -12l-47 -375q0 -13 11 -13h266q106 0 173 52.5t79 144.5
q11 94 -43.5 148.5t-159.5 54.5h-266zM655 207q104 0 171 57.5t79 155.5q12 99 -42.5 156t-160.5 57h-276q-11 0 -14 -12l-50 -402q0 -12 11 -12h282z" />
    <glyph glyph-name="C" unicode="C" horiz-adv-x="1208" 
d="M567 -16q-224 0 -345 132t-93 349l61 506q26 216 179.5 347.5t378.5 131.5q224 0 345 -127t95 -334q-3 -21 -33 -24l-170 -11q-14 -1 -22.5 2.5t-8.5 8.5l2 12q15 122 -48.5 195t-184.5 73t-203.5 -73t-97.5 -195l-64 -522q-15 -120 50 -193.5t186 -73.5q120 0 202 73.5
t97 193.5q0 11 9.5 17t23.5 5l166 -8q29 -5 30 -10v-10q-26 -211 -178.5 -338t-376.5 -127z" />
    <glyph glyph-name="D" unicode="D" horiz-adv-x="1226" 
d="M137 0q-31 0 -28 33l167 1368q7 33 37 33h478q214 0 329 -114.5t90 -305.5l-71 -594q-25 -192 -168 -306t-357 -114h-477zM362 217q-3 -12 11 -12h276q104 0 175.5 68.5t86.5 183.5l66 518q13 117 -42.5 185.5t-162.5 68.5h-274q-13 0 -13 -12z" />
    <glyph glyph-name="E" unicode="E" horiz-adv-x="1175" 
d="M1202 1262q-1 -15 -11.5 -24t-25.5 -9h-667q-13 0 -13 -12l-47 -379q0 -13 11 -13h446q30 0 27 -32l-17 -140q-6 -32 -37 -32h-444q-11 0 -14 -13l-48 -391q0 -12 11 -12h667q32 0 29 -33l-18 -139q-1 -15 -11 -24t-24 -9h-879q-31 0 -28 33l167 1368q7 33 37 33h879
q14 0 21 -9t6 -24z" />
    <glyph glyph-name="F" unicode="F" horiz-adv-x="1118" 
d="M1200 1262q-1 -15 -11.5 -24t-25.5 -9h-665q-13 0 -13 -12l-47 -379q0 -13 11 -13h446q30 0 27 -32l-17 -140q-6 -32 -37 -32h-444q-11 0 -14 -13l-70 -575q-1 -15 -11.5 -24t-25.5 -9h-166q-31 0 -28 33l167 1368q7 33 37 33h877q14 0 21 -9t6 -24z" />
    <glyph glyph-name="G" unicode="G" horiz-adv-x="1204" 
d="M567 -16q-224 0 -344 133.5t-94 351.5l61 496q26 219 179.5 352t378.5 133q221 0 342.5 -128.5t97.5 -324.5l-2 -8q-1 -15 -11 -24t-24 -9h-166q-13 0 -22 5.5t-7 13.5l2 16q14 111 -50 182.5t-185 71.5t-203.5 -74.5t-97.5 -197.5l-64 -512q-15 -122 53.5 -197.5
t192.5 -75.5q118 0 195 64.5t90 177.5l16 125q0 12 -10 12h-236q-15 0 -22 9t-4 24l16 135q3 33 35 33h442q32 0 29 -33l-31 -254q-29 -236 -179 -366.5t-378 -130.5z" />
    <glyph glyph-name="H" unicode="H" horiz-adv-x="1265" 
d="M1034 1401q1 15 11 24t24 9h168q15 0 22.5 -9t4.5 -24l-168 -1368q-3 -33 -35 -33h-166q-32 0 -29 33l70 575q2 5 -1 9t-9 4h-502q-11 0 -14 -13l-70 -575q-1 -15 -11.5 -24t-25.5 -9h-166q-31 0 -28 33l167 1368q7 33 37 33h166q32 0 29 -33l-70 -563q0 -13 11 -13h503
q13 0 13 13z" />
    <glyph glyph-name="I" unicode="I" horiz-adv-x="520" 
d="M137 0q-31 0 -28 33l167 1368q7 33 37 33h166q32 0 29 -33l-168 -1368q-1 -15 -11.5 -24t-25.5 -9h-166z" />
    <glyph glyph-name="J" unicode="J" horiz-adv-x="1165" 
d="M492 -16q-220 0 -340 124t-95 328l11 78q1 15 10.5 24t23.5 9h168q14 0 22 -9t5 -24l-8 -78q-14 -111 48.5 -179.5t178.5 -68.5q117 0 196 68.5t93 179.5l119 965q3 33 34 33h168q14 0 21 -9t6 -24l-119 -965q-25 -204 -174 -328t-368 -124z" />
    <glyph glyph-name="K" unicode="K" horiz-adv-x="1230" 
d="M137 0q-31 0 -28 33l167 1368q7 33 37 33h166q32 0 29 -33l-74 -602q-1 -7 3 -8.5t9 4.5l588 620q16 19 41 19h191q19 0 22.5 -13t-10.5 -28l-516 -564q-8 -8 -2 -16l385 -774q9 -17 1 -28t-28 -11h-190q-25 0 -35 23l-311 622q-2 6 -7.5 7t-11.5 -5l-164 -174
q-7 -10 -8 -14l-51 -426q-1 -15 -11.5 -24t-25.5 -9h-166z" />
    <glyph glyph-name="L" unicode="L" horiz-adv-x="1134" 
d="M137 0q-31 0 -28 33l167 1368q7 33 37 33h166q32 0 29 -33l-146 -1184q0 -12 11 -12h655q32 0 29 -33l-19 -139q-3 -33 -34 -33h-867z" />
    <glyph glyph-name="M" unicode="M" horiz-adv-x="1409" 
d="M137 0q-31 0 -28 33l167 1368q7 33 37 33h168q27 0 37 -23l248 -516q2 -6 6.5 -6t9.5 6l377 516q13 23 41 23h168q32 0 29 -33l-170 -1368q-3 -33 -35 -33h-166q-32 0 -29 33l119 968q2 9 -3 10.5t-11 -5.5l-285 -400q-16 -22 -43 -22h-76q-26 0 -39 22l-186 400
q-2 5 -5 6t-5.5 -2t-3.5 -9l-119 -968q-1 -15 -11.5 -24t-25.5 -9h-166z" />
    <glyph glyph-name="N" unicode="N" horiz-adv-x="1318" 
d="M137 0q-31 0 -28 33l167 1368q7 33 37 33h158q29 0 39 -23l440 -938q3 -8 8.5 -6.5t6.5 10.5l112 924q7 33 37 33h166q32 0 29 -33l-168 -1368q-1 -15 -11.5 -24t-25.5 -9h-162q-27 0 -37 23l-440 944q-5 8 -9.5 6.5t-4.5 -10.5l-113 -930q-3 -33 -37 -33h-164z" />
    <glyph glyph-name="O" unicode="O" horiz-adv-x="1232" 
d="M573 -20q-226 0 -348 138t-94 365l57 467q28 224 184 362t382 138q229 0 351.5 -138t94.5 -362l-57 -467q-29 -227 -186 -365t-384 -138zM598 184q126 0 211 79.5t102 211.5l58 477q17 132 -49 212.5t-191 80.5q-124 0 -209 -80.5t-100 -212.5l-60 -477
q-17 -131 48.5 -211t189.5 -80z" />
    <glyph glyph-name="P" unicode="P" horiz-adv-x="1181" 
d="M840 1436q189 0 290 -118t78 -310q-23 -190 -156.5 -306t-328.5 -116h-315q-12 0 -15 -13l-65 -540q-1 -15 -11 -24t-24 -9h-168q-15 0 -22.5 9t-4.5 24l168 1370q3 33 35 33h539zM725 778q101 0 170.5 61.5t81.5 161.5q12 103 -42 166.5t-155 63.5h-293q-11 0 -14 -12
l-51 -428q-2 -5 1 -9t9 -4h293z" />
    <glyph glyph-name="Q" unicode="Q" horiz-adv-x="1165" 
d="M721 1450q220 0 338 -136.5t92 -359.5l-61 -491q-22 -180 -135 -305t-285 -162q-13 -4 -13 -12l-20 -164q-1 -15 -11 -24t-24 -9h-168q-14 0 -21.5 9t-4.5 24l20 164q0 9 -10 12q-164 35 -247 160t-60 307l59 491q28 223 179.5 359.5t371.5 136.5zM860 467l62 500
q15 125 -47.5 201.5t-180.5 76.5q-114 0 -195 -77t-96 -201l-61 -500q-15 -125 46.5 -202t176.5 -77q118 0 199 77t96 202z" />
    <glyph glyph-name="R" unicode="R" horiz-adv-x="1218" 
d="M893 0q-29 0 -35 25l-188 585q-3 8 -15 8h-231q-11 0 -14 -12l-70 -573q-1 -15 -11.5 -24t-25.5 -9h-166q-31 0 -28 33l170 1370q3 33 34 33h539q185 0 284 -115.5t76 -302.5q-19 -141 -101.5 -240.5t-209.5 -136.5q-12 -3 -8 -16l203 -586q5 -18 -3 -28.5t-26 -10.5
h-174zM500 1231q-15 0 -15 -12l-49 -404q-3 -12 10 -12h295q95 0 161.5 58.5t78.5 152.5q12 97 -39.5 157t-146.5 60h-295z" />
    <glyph glyph-name="S" unicode="S" horiz-adv-x="1171" 
d="M551 -16q-230 0 -353 111.5t-100 299.5l6 43q3 33 35 33h164q30 0 27 -31l-4 -32q-11 -94 61.5 -157t206.5 -63q121 0 188.5 53.5t77.5 137.5q5 35 -5 64t-28.5 50.5t-60.5 46.5t-81.5 43t-111.5 48q-78 31 -123.5 52t-106.5 59.5t-91 79t-48.5 102.5t-8.5 137
q22 181 161.5 285t352.5 104q226 0 350.5 -116.5t101.5 -305.5l-4 -27q-3 -32 -35 -32h-164q-14 0 -21.5 7t-6.5 17l4 23q11 97 -57.5 163t-202.5 66q-110 0 -177 -47t-77 -133q-3 -27 1 -49t12 -40t28.5 -35.5t40 -31t57 -31t69 -30.5t85.5 -35q161 -66 227 -110
q157 -103 155 -270q0 -23 -3 -48q-22 -182 -168 -291.5t-373 -109.5z" />
    <glyph glyph-name="T" unicode="T" horiz-adv-x="1150" 
d="M1188 1434q29 0 26 -33l-16 -141q-1 -15 -11.5 -24t-25.5 -9h-354q-11 0 -14 -13l-146 -1181q-1 -15 -11 -24t-24 -9h-168q-14 0 -21.5 9t-4.5 24l145 1181q0 13 -12 13h-340q-32 0 -29 33l19 141q3 33 35 33h952z" />
    <glyph glyph-name="U" unicode="U" horiz-adv-x="1263" 
d="M590 -16q-224 0 -345 131.5t-95 349.5l116 936q3 33 35 33h168q14 0 21 -9t6 -24l-115 -940q-15 -122 49 -197.5t184 -75.5q121 0 205 75.5t99 197.5l114 940q1 15 11 24t24 9h168q32 0 29 -33l-117 -936q-26 -218 -178.5 -349.5t-378.5 -131.5z" />
    <glyph glyph-name="V" unicode="V" horiz-adv-x="1212" 
d="M473 0q-27 0 -33 27l-243 1370q-3 37 30 37h181q29 0 32 -27l164 -1059q3 -8 8.5 -8t8.5 8l421 1057q10 29 39 29h179q15 0 20.5 -10t-0.5 -27l-586 -1370q-12 -27 -39 -27h-182z" />
    <glyph glyph-name="W" unicode="W" horiz-adv-x="1722" 
d="M397 0q-29 0 -32 29l-189 1368q-3 17 6 27t25 10h180q28 0 31 -29l110 -922q0 -6 3.5 -7.5t7.5 0.5t6 7l325 922q9 29 37 29h178q30 0 33 -29l113 -922q1 -9 7 -9t9 9l334 922q9 29 37 29h172q15 0 20.5 -10t-0.5 -27l-505 -1368q-9 -29 -39 -29h-172q-31 0 -31 29
l-113 964q0 6 -3 7.5t-7 -0.5t-6 -7l-338 -964q-9 -29 -37 -29h-162z" />
    <glyph glyph-name="X" unicode="X" horiz-adv-x="1224" 
d="M57 0q-38 0 -14 39l471 670q6 9 2 16l-307 670q-14 39 24 39h183q29 0 35 -23l225 -500q6 -13 16 0l348 500q14 23 41 23h183q17 0 21 -11t-7 -28l-471 -670q-8 -8 -2 -16l307 -670q6 -17 -1 -28t-24 -11h-182q-26 0 -35 23l-227 497q-1 6 -6 6t-8 -6l-350 -497
q-14 -23 -41 -23h-181z" />
    <glyph glyph-name="Y" unicode="Y" horiz-adv-x="1189" 
d="M471 2q-32 0 -29 33l68 538q0 2 -1 7.5t-1 7.5l-303 807q-6 18 1 28.5t25 10.5h181q25 0 34 -25l203 -563q3 -6 8.5 -6t8.5 6l344 563q16 25 41 25h182q18 0 22.5 -11t-6.5 -28l-504 -807q-3 -9 -6 -15l-65 -538q-1 -15 -11.5 -24t-25.5 -9h-166z" />
    <glyph glyph-name="Z" unicode="Z" horiz-adv-x="1099" 
d="M66 0q-32 0 -29 33l20 160q3 18 17 40l786 981q11 15 -6 15h-637q-32 0 -29 33l17 139q7 33 37 33h878q14 0 21 -9t6 -24l-19 -160q-3 -23 -18 -41l-784 -981q-6 -6 -4 -10t10 -4h637q31 0 28 -33l-18 -139q-1 -15 -11 -24t-24 -9h-878z" />
    <glyph glyph-name="bracketleft" unicode="[" horiz-adv-x="800" 
d="M25 -283q-15 0 -22.5 9t-4.5 24l225 1837q1 15 11 24t24 9h422q15 0 22.5 -9t4.5 -24l-17 -139q-1 -15 -11 -24t-24 -9h-211q-11 0 -14 -12l-180 -1466q0 -13 10 -13h213q32 0 29 -33l-19 -141q-1 -15 -10.5 -24t-23.5 -9h-424z" />
    <glyph glyph-name="backslash" unicode="\" horiz-adv-x="821" 
d="M727 37q9 -37 -31 -37h-161q-28 0 -35 27l-312 1370q-3 18 6 27.5t25 9.5h164q28 0 35 -27z" />
    <glyph glyph-name="bracketright" unicode="]" horiz-adv-x="800" 
d="M664 -250q-7 -33 -37 -33h-424q-14 0 -21 9t-6 24l17 141q7 33 36 33h213q13 0 13 13l180 1466q0 12 -10 12h-211q-14 0 -22 9t-5 24l16 139q1 15 11 24t24 9h422q32 0 29 -33z" />
    <glyph glyph-name="asciicircum" unicode="^" horiz-adv-x="923" 
d="M139 616q-38 0 -20 37l366 754q13 27 41 27h142q25 0 32 -27l185 -754q6 -37 -31 -37h-129q-28 0 -35 27l-117 535q-1 9 -6 9t-10 -9l-246 -535q-13 -27 -41 -27h-131z" />
    <glyph glyph-name="underscore" unicode="_" horiz-adv-x="1011" 
d="M35 0q-14 0 -21 9t-6 24l15 117q1 15 10.5 23.5t23.5 8.5h861q31 0 28 -32l-14 -117q-1 -15 -11.5 -24t-25.5 -9h-860z" />
    <glyph glyph-name="grave" unicode="`" horiz-adv-x="452" 
d="M498 1217q6 -17 -2.5 -28t-26.5 -11h-129q-27 0 -37 20l-102 197q-8 17 -1.5 28t25.5 11h158q25 0 35 -23z" />
    <glyph glyph-name="a" unicode="a" horiz-adv-x="1093" 
d="M823 1014q1 15 11.5 24t25.5 9h166q32 0 29 -33l-121 -981q-1 -15 -11.5 -24t-25.5 -9h-166q-32 0 -29 33l7 49q1 7 -3.5 9.5t-9.5 -3.5q-96 -104 -237 -104q-140 0 -229 76t-117 210q-22 118 -4 256q16 144 63 250q62 136 169 211.5t251 75.5q136 0 213 -96
q5 -7 8.5 -5.5t5.5 9.5zM686 287q57 80 76 237q19 161 -21 244q-43 90 -137 90q-103 0 -170 -86q-70 -92 -88 -250q-18 -148 19 -233q42 -99 155 -99q98 0 166 97z" />
    <glyph glyph-name="b" unicode="b" horiz-adv-x="1093" 
d="M1034 776q21 -96 4 -250q-18 -144 -67 -256q-61 -134 -169 -210t-247 -76q-142 0 -215 106q-3 7 -7.5 5.5t-6.5 -9.5l-7 -53q-1 -15 -10.5 -24t-23.5 -9h-168q-14 0 -22 9t-5 24l168 1368q3 33 35 33h168q29 0 26 -33l-53 -434q0 -8 4.5 -9t10.5 5q97 100 237 100
q144 0 232.5 -76t115.5 -211zM723 289q57 84 76 233q21 159 -27 250q-45 86 -147 86q-97 0 -162 -90q-60 -88 -78 -244q-20 -164 16 -237q43 -97 144 -97q114 0 178 99z" />
    <glyph glyph-name="c" unicode="c" horiz-adv-x="1054" 
d="M504 -16q-152 0 -253 80.5t-128 218.5q-21 93 -2 245q16 144 61 242q59 136 180.5 214.5t274.5 78.5q156 0 261.5 -79.5t127.5 -201.5q7 -38 4 -57q3 -30 -31 -37l-168 -26q-30 -6 -30 24l-4 27q-6 62 -57 103.5t-128 41.5t-133.5 -40t-83.5 -109q-29 -71 -43 -183
q-14 -117 -4 -182q11 -72 57.5 -114t124.5 -42q75 0 134 40t84 106l4 10q4 10 16.5 21t24.5 8l161 -27q32 -7 23 -37q-12 -38 -14 -41q-55 -131 -179.5 -207.5t-279.5 -76.5z" />
    <glyph glyph-name="d" unicode="d" horiz-adv-x="1093" 
d="M870 1401q7 33 37 33h166q32 0 29 -33l-168 -1368q-1 -15 -11.5 -24t-25.5 -9h-166q-32 0 -29 33l9 53q0 8 -4.5 9.5t-10.5 -5.5q-95 -106 -239 -106q-140 0 -229 76t-117 210q-22 121 -5 256q15 141 64 250q62 136 169 211.5t251 75.5q138 0 213 -100q3 -4 6.5 -5
t5.5 1.5t2 7.5zM684 287q57 80 76 237q19 161 -21 244q-43 90 -137 90q-103 0 -170 -86q-70 -92 -88 -250q-19 -149 18 -233q42 -99 156 -99q98 0 166 97z" />
    <glyph glyph-name="e" unicode="e" horiz-adv-x="1077" 
d="M561 184q147 6 230 113q23 29 45 10l86 -78q20 -20 4 -45q-69 -94 -176 -147t-236 -53q-158 0 -254.5 76.5t-126.5 213.5q-25 118 -8 254q16 140 47 217q56 146 178.5 232t280.5 86q373 0 383 -420q3 -79 -6 -168q-1 -15 -11 -24t-24 -9h-617q-11 0 -14 -12q-3 -60 2 -90
q12 -73 69 -114.5t148 -41.5zM604 858q-76 0 -129 -38t-80 -105q-12 -25 -26 -86q-3 -13 8 -13h399q12 0 15 13q0 46 -3 73q-9 72 -57.5 114t-126.5 42z" />
    <glyph glyph-name="f" unicode="f" horiz-adv-x="747" 
d="M733 1049q14 0 22 -9t5 -24l-17 -146q-6 -32 -36 -32h-187q-11 0 -14 -13l-96 -792q-1 -15 -11.5 -24t-25.5 -9h-166q-32 0 -29 33l98 792q0 13 -10 13h-114q-30 0 -27 32l18 146q3 33 35 33h113q11 0 14 12l4 35q25 195 112 267.5t294 70.5h61q15 0 22.5 -9t4.5 -24
l-15 -127q-2 -15 -11.5 -24t-24.5 -9h-43q-86 0 -123 -35t-47 -127l-4 -18q0 -12 12 -12h186z" />
    <glyph glyph-name="g" unicode="g" horiz-adv-x="1091" 
d="M829 1014q1 15 11.5 24t25.5 9h166q32 0 29 -33l-117 -944q-11 -87 -38 -159t-66.5 -122.5t-90 -89t-108 -59.5t-122 -34t-130.5 -12.5t-133 5.5q-26 3 -23 36l25 152q1 15 12.5 23t26.5 6q197 -18 297 40t121 220l2 12q0 18 -15 6q-91 -88 -239 -88q-128 0 -226.5 68
t-123.5 207q-14 87 4 247q22 172 63 260q55 124 162 199.5t238 75.5q152 0 231 -92q10 -13 14 6zM733 348q24 57 37 182q15 117 6 179q-6 67 -51 108t-119 41q-73 0 -127.5 -41t-83.5 -108q-30 -58 -47 -181q-14 -130 -2 -178q13 -66 59.5 -107.5t120.5 -41.5q78 0 131 40.5
t76 106.5z" />
    <glyph glyph-name="h" unicode="h" horiz-adv-x="1081" 
d="M700 1063q162 0 247 -99t65 -268l-82 -663q-1 -15 -11 -24t-24 -9h-168q-32 0 -29 33l76 614q12 94 -33 152.5t-131 58.5q-85 0 -145 -57.5t-72 -151.5l-76 -616q-1 -15 -10.5 -24t-23.5 -9h-168q-14 0 -22 9t-5 24l168 1368q1 15 11 24t24 9h168q29 0 26 -33l-53 -443
q-2 -8 2 -10t10 4q92 111 256 111z" />
    <glyph glyph-name="i" unicode="i" horiz-adv-x="505" 
d="M358 1178q-65 0 -101.5 41.5t-27.5 107.5q8 65 54 106.5t112 41.5q65 0 101 -41.5t28 -106.5q-7 -66 -53.5 -107.5t-112.5 -41.5zM131 0q-32 0 -29 33l121 981q7 33 37 33h166q32 0 29 -33l-121 -981q-1 -15 -11 -24t-24 -9h-168z" />
    <glyph glyph-name="j" unicode="j" horiz-adv-x="487" 
d="M352 1171q-65 0 -101 43t-28 107q7 62 56.5 104.5t109.5 42.5q62 0 101 -42.5t32 -104.5q-8 -64 -55.5 -107t-114.5 -43zM-162 -420q-29 0 -26 33l16 135q2 15 12 23.5t25 7.5q108 0 160.5 44t64.5 142l127 1049q7 33 37 33h166q32 0 29 -33l-130 -1047
q-26 -217 -131.5 -303.5t-349.5 -83.5z" />
    <glyph glyph-name="k" unicode="k" horiz-adv-x="1036" 
d="M115 0q-14 0 -22 9t-5 24l168 1368q1 15 11 24t24 9h168q29 0 26 -33l-88 -727q-1 -7 3.5 -9.5t9.5 3.5l360 360q19 19 41 19h193q19 0 24 -13t-10 -28l-281 -299q-8 -5 -4 -17l213 -651q9 -39 -28 -39h-177q-26 0 -32 25l-152 512q-5 13 -16 2l-179 -187q-6 -9 -6 -14
l-39 -305q-1 -15 -10.5 -24t-23.5 -9h-168z" />
    <glyph glyph-name="l" unicode="l" horiz-adv-x="483" 
d="M117 0q-14 0 -22 9t-5 24l168 1368q3 33 35 33h168q29 0 26 -33l-168 -1368q-1 -15 -10.5 -24t-23.5 -9h-168z" />
    <glyph glyph-name="m" unicode="m" horiz-adv-x="1646" 
d="M1300 1063q153 0 228 -95.5t55 -265.5l-84 -669q-3 -33 -35 -33h-166q-29 0 -26 33l76 620q12 93 -31 149t-123 56q-81 0 -140 -55.5t-69 -147.5l-78 -622q-3 -33 -35 -33h-165q-14 0 -21 9t-6 24l76 620q10 94 -32 149.5t-124 55.5q-75 0 -128.5 -45t-72.5 -123
l-82 -657q-1 -15 -10.5 -24t-23.5 -9h-168q-14 0 -22 9t-5 24l121 981q3 33 35 33h166q31 0 28 -33l-6 -56q-2 -8 3 -9.5t9 5.5q100 109 265 109q198 0 262 -158q3 -6 8 -5.5t8 7.5q112 156 313 156z" />
    <glyph glyph-name="n" unicode="n" horiz-adv-x="1081" 
d="M700 1063q162 0 247 -99t65 -268l-82 -663q-1 -15 -11 -24t-24 -9h-168q-32 0 -29 33l76 614q12 94 -33 152.5t-131 58.5q-85 0 -145 -57.5t-72 -151.5l-76 -616q-1 -15 -10.5 -24t-23.5 -9h-168q-14 0 -22 9t-5 24l121 981q3 33 35 33h166q31 0 28 -33l-6 -56
q-2 -8 2 -10t10 4q92 111 256 111z" />
    <glyph glyph-name="o" unicode="o" horiz-adv-x="1105" 
d="M514 -16q-157 0 -260 82t-129 227q-21 97 -4 233q16 133 59 234q63 143 186.5 223t282.5 80q152 0 252 -79.5t129 -221.5q22 -103 6 -234q-16 -127 -61 -233q-63 -146 -185 -228.5t-276 -82.5zM539 188q73 0 131.5 43.5t89.5 120.5q33 67 43 172q12 101 2 172
q-14 77 -63 119.5t-124 42.5q-76 0 -134 -42.5t-91 -119.5q-30 -82 -41 -172q-12 -98 -2 -172q14 -77 63.5 -120.5t125.5 -43.5z" />
    <glyph glyph-name="p" unicode="p" horiz-adv-x="1101" 
d="M1040 776q22 -118 4 -256q-16 -144 -63 -250q-62 -136 -168 -211t-252 -75q-138 0 -213 100q-2 4 -5 5t-5.5 -1.5t-3.5 -7.5l-53 -434q-1 -15 -11.5 -24t-25.5 -9h-166q-32 0 -29 33l168 1368q7 33 37 33h166q32 0 29 -33l-7 -53q-2 -8 3.5 -10t9.5 5q96 107 239 107
q140 0 229.5 -77t116.5 -210zM719 274q70 92 88 250q19 148 -19 234q-42 98 -155 98q-98 0 -166 -96q-57 -80 -76 -238q-18 -160 21 -243q43 -91 137 -91q103 0 170 86z" />
    <glyph glyph-name="q" unicode="q" horiz-adv-x="1101" 
d="M823 1014q1 15 11.5 24t25.5 9h166q32 0 29 -33l-168 -1368q-7 -33 -37 -33h-166q-32 0 -29 33l54 434q1 7 -3.5 8.5t-9.5 -4.5q-100 -100 -239 -100q-144 0 -231.5 75t-116.5 211q-21 111 -3 250q15 138 66 256q61 134 169.5 210.5t248.5 76.5q142 0 213 -107
q3 -7 7.5 -5t6.5 10zM680 279q62 86 80 243q19 158 -17 238q-46 96 -143 96q-113 0 -180 -98q-58 -89 -76 -234q-18 -163 27 -250q45 -86 149 -86q95 0 160 91z" />
    <glyph glyph-name="r" unicode="r" horiz-adv-x="747" 
d="M686 1059q58 0 102 -23q22 -13 13 -41l-51 -170q-10 -29 -41 -20q-45 14 -101 6q-85 -5 -147 -60.5t-74 -146.5l-70 -571q-1 -15 -10.5 -24t-23.5 -9h-168q-14 0 -22 9t-5 24l121 981q3 33 35 33h166q31 0 28 -33l-10 -80q0 -19 12 -4q95 129 246 129z" />
    <glyph glyph-name="s" unicode="s" horiz-adv-x="980" 
d="M461 -12q-188 0 -292 82t-89 209l2 10q3 33 35 33h159q13 0 22 -4.5t7 -10.5v-14q-8 -52 42 -89.5t134 -37.5q79 0 133 34t60 85q3 21 -5 38t-21 28t-38.5 22t-47 18t-58 18.5t-60.5 20.5q-39 12 -66.5 22t-63.5 26.5t-60 33t-48.5 40.5t-38 51t-19.5 63.5t-1 78.5
q19 145 137.5 229.5t297.5 84.5q182 0 282.5 -87t83.5 -224q-4 -25 -35 -25h-153q-31 0 -31 12l2 13q6 53 -40 88.5t-134 35.5q-78 0 -129.5 -29t-58.5 -83q-2 -14 0.5 -25.5t10 -22t15 -18.5t23.5 -16t26.5 -13.5t33.5 -13t36 -11.5t40.5 -12t41.5 -12q42 -13 69.5 -22.5
t65.5 -26t63 -32.5t51 -40.5t40 -51.5t20.5 -64t1.5 -80q-19 -146 -139 -228.5t-307 -82.5z" />
    <glyph glyph-name="t" unicode="t" horiz-adv-x="743" 
d="M731 887q-1 -15 -11.5 -24t-25.5 -9h-192q-13 0 -13 -12l-59 -484q-10 -79 19 -114t100 -35h51q15 0 22.5 -9t4.5 -24l-17 -137q-3 -32 -35 -35q-17 0 -49 -1t-47 -1q-76 0 -128 11.5t-91.5 40t-54.5 82t-6 132.5l69 574q0 12 -10 12h-104q-14 0 -21 9t-6 24l16 127
q3 33 35 33h103q11 0 14 12l29 229q1 15 10.5 24t23.5 9h158q15 0 22.5 -9t4.5 -24l-27 -229q-2 -5 1 -8.5t9 -3.5h193q15 0 22 -9t4 -24z" />
    <glyph glyph-name="u" unicode="u" horiz-adv-x="1075" 
d="M807 1014q7 33 37 33h164q31 0 28 -33l-121 -981q-1 -15 -10.5 -24t-23.5 -9h-166q-14 0 -22 9t-5 24l6 53q0 8 -4 9.5t-10 -5.5q-90 -104 -254 -104q-97 0 -171.5 37.5t-115 117.5t-26.5 191l84 682q3 33 34 33h168q14 0 21 -9t6 -24l-76 -615q-11 -97 30.5 -154
t129.5 -57q89 0 150 58t73 153z" />
    <glyph glyph-name="v" unicode="v" horiz-adv-x="1001" 
d="M365 0q-28 0 -31 27l-195 983q-6 37 31 37h186q27 0 33 -27l107 -680q1 -5 3.5 -6.5t5.5 0t5 6.5l272 678q12 29 39 29l187 -3q17 0 23 -9.5t-1 -26.5l-432 -981q-12 -27 -39 -27h-194z" />
    <glyph glyph-name="w" unicode="w" horiz-adv-x="1511" 
d="M330 0q-27 0 -33 27l-160 983q-3 37 33 37h174q29 0 29 -29l82 -672q0 -6 3 -7.5t6.5 0.5t4.5 7l252 672q10 29 39 29h153q30 0 33 -29l92 -674q0 -5 3.5 -7t7 0t4.5 7l254 674q10 29 39 29l172 -3q15 0 21.5 -9.5t0.5 -26.5l-403 -981q-12 -27 -39 -27h-176
q-27 0 -33 27l-94 612q-3 7 -9 7t-8 -7l-231 -610q-13 -29 -41 -29h-176z" />
    <glyph glyph-name="x" unicode="x" horiz-adv-x="1026" 
d="M39 0q-19 0 -22.5 11t8.5 28l372 477q5 7 2 16l-256 476q-8 17 -1 28t26 11h178q25 0 37 -21l164 -309q6 -10 16 0l238 309q16 21 41 21h192q20 0 24.5 -11t-9.5 -28l-371 -476q-8 -8 -2 -16l254 -477q9 -17 2 -28t-27 -11h-178q-25 0 -35 20l-164 310q-2 4 -6.5 4
t-7.5 -4l-242 -310q-17 -20 -41 -20h-192z" />
    <glyph glyph-name="y" unicode="y" horiz-adv-x="970" 
d="M14 -408q-13 0 -10 33l16 131q1 14 6.5 23.5t10.5 9.5h12q119 0 175 39t106 164q2 6 2 16l-203 1002q-3 18 6 27.5t25 9.5h180q28 0 31 -27l112 -678q1 -5 4 -6.5t6.5 0t6.5 6.5l270 678q12 27 39 27h180q16 0 22.5 -9t-1.5 -28l-480 -1067q-40 -87 -71.5 -141
t-71.5 -98.5t-89 -66.5t-114 -33.5t-157 -11.5h-13z" />
    <glyph glyph-name="z" unicode="z" horiz-adv-x="903" 
d="M47 0q-14 0 -22 9t-5 24l19 160q3 23 20 40l553 584q6 6 4 10t-10 4h-446q-32 0 -29 33l19 150q7 33 36 33h707q32 0 29 -33l-21 -160q-3 -26 -18 -41l-568 -584q-4 -6 -1.5 -10t8.5 -4h475q31 0 28 -33l-18 -149q-1 -15 -11.5 -24t-25.5 -9h-723z" />
    <glyph glyph-name="braceleft" unicode="{" horiz-adv-x="696" 
d="M369 -283q-239 0 -209 246l53 432q10 85 -10 128.5t-74 54.5q-30 6 -27 34l17 127q3 30 35 33q56 11 87.5 54t41.5 126l51 422q30 246 268 246h154q14 0 21.5 -9t4.5 -24l-16 -139q-1 -15 -11.5 -24t-25.5 -9h-51q-53 0 -85.5 -35.5t-39.5 -101.5l-45 -354
q-10 -97 -43 -154.5t-92 -87.5q-16 -5 -4 -14q53 -29 71 -87.5t6 -156.5l-43 -363q-9 -67 15.5 -102t77.5 -35h51q31 0 28 -33l-18 -141q-1 -15 -11 -24t-24 -9h-153z" />
    <glyph glyph-name="bar" unicode="|" horiz-adv-x="376" 
d="M45 -164q-15 0 -22.5 9t-4.5 24l203 1655q1 15 11 23.5t24 8.5h168q33 0 27 -32l-203 -1655q-1 -15 -11 -24t-24 -9h-168z" />
    <glyph glyph-name="braceright" unicode="}" horiz-adv-x="696" 
d="M178 -283h-153q-15 0 -22.5 9t-4.5 24l16 141q1 15 11.5 24t25.5 9h51q53 0 85.5 35t39.5 102l45 363q23 187 138 244q15 9 2 14q-53 29 -71.5 86.5t-6.5 155.5l43 354q9 66 -15 101.5t-77 35.5h-52q-31 0 -28 33l18 139q1 15 11 24t24 9h154q236 0 209 -246l-54 -422
q-9 -83 11.5 -126.5t74.5 -53.5q31 -3 25 -33l-14 -127q-3 -28 -35 -34q-56 -11 -87.5 -55t-41.5 -128l-54 -432q-30 -246 -268 -246z" />
    <glyph glyph-name="asciitilde" unicode="~" horiz-adv-x="1036" 
d="M713 434q-37 0 -73 10.5t-53 19.5t-52 30q-87 59 -156 59q-79 0 -139 -70q-23 -29 -45 -10l-82 64q-22 19 -9 43q44 80 125.5 130t167.5 50q80 0 164 -53q70 -47 104 -58q30 -10 60 -10q60 0 123 70q20 26 45 8l96 -70q22 -17 6 -43q-47 -76 -123 -123t-159 -47z" />
    <glyph glyph-name="uni00A0" unicode="&#xa0;" horiz-adv-x="397" 
 />
    <glyph glyph-name="exclamdown" unicode="&#xa1;" horiz-adv-x="671" 
d="M469 1450q68 0 109.5 -46.5t33.5 -111.5q-9 -65 -64 -111t-118 -46t-105.5 46t-35.5 111q9 66 60.5 112t119.5 46zM317 938q6 33 37 33h123q33 0 27 -33l-86 -885q-3 -33 -37 -33h-166q-32 0 -29 33z" />
    <glyph glyph-name="cent" unicode="&#xa2;" horiz-adv-x="1054" 
d="M770 518l4 10q4 10 16.5 21t24.5 8l162 -27q31 -7 22 -36q-13 -37 -14 -41q-47 -112 -145.5 -185.5t-225.5 -93.5q-12 -3 -12 -14l-12 -125q-2 -15 -11 -24t-22 -9h-133q-30 0 -27 33l21 135q3 8 -8 12q-105 26 -174 101.5t-91 183.5q-21 94 -2 246q16 140 62 241
q46 107 133 180t201 99q9 3 12 12l12 135q1 15 10 24t23 9h133q30 0 27 -33l-21 -127q0 -11 10 -14q123 -20 204 -94t100 -178q7 -39 4 -58q3 -30 -31 -37l-168 -26q-31 -6 -31 24l-4 27q-6 62 -56.5 103.5t-127.5 41.5t-133.5 -40t-83.5 -109q-29 -71 -43 -182
q-12 -103 -4 -183q11 -72 57.5 -113.5t124.5 -41.5q75 0 133.5 39.5t83.5 105.5z" />
    <glyph glyph-name="sterling" unicode="&#xa3;" horiz-adv-x="1212" 
d="M559 430q-16 -127 -100 -211q-7 -6 -5.5 -10t9.5 -4h641q32 0 29 -33l-19 -139q-1 -15 -11 -24t-24 -9h-880q-32 0 -29 33l18 145q3 24 27 41q98 64 113 209l20 164q3 12 -10 12h-127q-15 0 -22.5 9t-4.5 24l15 127q1 15 11.5 24t25.5 9h126q13 0 13 12l26 211
q24 199 149 311.5t318 118.5q154 4 248.5 -73.5t126.5 -221.5q3 -33 -29 -39l-157 -29q-27 -6 -37 23q-18 74 -59.5 105.5t-108.5 29.5q-91 -3 -148.5 -57.5t-70.5 -163.5l-27 -215q-3 -12 10 -12h357q29 0 26 -33l-14 -127q-7 -33 -37 -33h-356q-12 0 -12 -12z" />
    <glyph glyph-name="currency" unicode="&#xa4;" horiz-adv-x="1101" 
d="M1004 621q-14 -114 -82 -218q-6 -12 0 -18l104 -123q21 -24 -8 -47l-111 -90q-26 -20 -45 2l-100 115q-4 8 -17 2q-103 -58 -217 -58q-111 0 -196 54q-11 6 -19 -2l-120 -111q-26 -22 -46 -2l-92 90q-19 22 6 47l125 115q10 7 7 18q-50 106 -35 226q14 115 84 217
q8 10 0 18l-105 121q-19 25 6 47l113 92q26 20 45 -2l98 -115q4 -8 17 -2q103 58 219 58q119 0 211 -64q8 -6 16 2l135 121q10 10 23 10.5t22 -8.5l91 -92q22 -22 -7 -47l-145 -131q-7 -7 -4 -17q41 -100 27 -208zM356 621q-12 -95 46.5 -163.5t150.5 -68.5t166.5 67.5
t87.5 164.5q10 95 -48.5 163t-150.5 68t-166 -68t-86 -163z" />
    <glyph glyph-name="yen" unicode="&#xa5;" horiz-adv-x="1363" 
d="M1325 1434q17 0 21.5 -11t-5.5 -28l-432 -693q-8 -14 6 -14h183q31 0 28 -33l-10 -69q-3 -33 -35 -33h-241q-4 0 -8.5 -3.5t-4.5 -8.5l-14 -119q-3 -12 10 -12h240q32 0 29 -33l-9 -70q-7 -33 -36 -33h-240q-11 0 -14 -12l-27 -227q-7 -33 -37 -33h-166q-31 0 -28 33
l28 227q0 12 -10 12h-246q-29 0 -26 33l8 70q1 15 11 24t24 9h245q13 0 13 12l14 119q3 12 -10 12h-244q-32 0 -29 33l11 69q3 33 34 33h187q13 0 10 14l-258 693q-7 17 0.5 28t26.5 11h180q26 0 35 -25l202 -563q7 -14 17 0l342 563q16 25 41 25h184z" />
    <glyph glyph-name="brokenbar" unicode="&#xa6;" horiz-adv-x="376" 
d="M166 821q-14 0 -22 9t-5 24l82 670q1 15 11 23.5t24 8.5h168q33 0 27 -32l-82 -670q-1 -15 -11 -24t-24 -9h-168zM45 -164q-15 0 -22.5 9t-4.5 24l82 670q1 15 11 23.5t24 8.5h168q14 0 22 -8.5t5 -23.5l-82 -670q-1 -15 -11 -24t-24 -9h-168z" />
    <glyph glyph-name="section" unicode="&#xa7;" horiz-adv-x="960" 
d="M381 -426q-169 0 -255 92.5t-69 249.5l4 55q6 33 35 33h166q32 0 29 -27l-2 -24q-10 -79 25 -126.5t104 -47.5q66 0 113 45t55 113q5 40 -6 69.5t-47 54.5t-60.5 36.5t-88.5 36.5l-7.5 3t-6.5 3t-8 3q-90 35 -143.5 72t-81.5 96q-38 74 -26 185q15 117 79 200
q57 73 146 105q19 6 4 14q-75 39 -115.5 115t-29.5 176q19 143 140 243.5t286 100.5q163 0 256.5 -97t76.5 -249l-4 -35q-1 -15 -11.5 -24t-25.5 -9h-165q-15 0 -23 7t-6 16l2 20q9 73 -27 119.5t-100 46.5q-66 0 -114 -46.5t-56 -113.5q-5 -41 8 -72.5t45 -55.5t64 -39.5
t84 -34.5q48 -16 80 -29.5t74.5 -41.5t68.5 -62q66 -86 49 -222q-12 -110 -78 -198q-65 -92 -147 -113q-7 -1 -8 -5t4 -7q170 -98 147 -291q-18 -153 -141 -246.5t-293 -93.5zM481 340q95 0 144 68q33 45 39 102q9 67 -17 111q-41 61 -123 61q-42 0 -80.5 -21.5t-62.5 -56.5
q-33 -39 -39 -98q-6 -61 16 -98q36 -68 123 -68z" />
    <glyph glyph-name="dieresis" unicode="&#xa8;" horiz-adv-x="700" 
d="M274 1190q-56 0 -85.5 35t-22.5 92q6 57 45.5 92t95.5 35q54 0 83 -35t22 -92q-6 -57 -45 -92t-93 -35zM639 1190q-55 0 -85 35t-24 92q8 57 46.5 92t93.5 35t84.5 -35t23.5 -92q-8 -57 -46 -92t-93 -35z" />
    <glyph glyph-name="copyright" unicode="&#xa9;" horiz-adv-x="1658" 
d="M786 -16q-204 0 -356 95.5t-223.5 264t-46.5 377.5q25 206 138 373t289 261.5t380 94.5q206 0 358.5 -94.5t223.5 -261t46 -373.5q-25 -209 -137.5 -377.5t-289 -264t-382.5 -95.5zM803 119q255 0 441.5 170.5t217.5 431.5q21 168 -37 304t-183 213t-292 77
q-125 0 -239 -45.5t-200.5 -124t-144 -188.5t-73.5 -236q-32 -261 112.5 -431.5t397.5 -170.5zM836 354q-107 0 -164 62t-45 164l35 278q12 102 84 162.5t180 60.5q106 0 162.5 -57.5t46.5 -155.5q-4 -18 -35 -18l-64 -2q-15 0 -23.5 3t-6.5 7v8q6 47 -20.5 76t-74.5 29
q-49 0 -81 -29t-37 -76l-37 -297q-6 -46 19.5 -74t74.5 -28q47 0 81 28t40 74q0 9 9.5 15t23.5 6l63 -2q8 0 13.5 -0.5t10 -1.5t6.5 -2.5t1 -3.5v-11q-12 -98 -84.5 -156.5t-177.5 -58.5z" />
    <glyph glyph-name="ordfeminine" unicode="&#xaa;" horiz-adv-x="649" 
d="M412 1159h129q14 0 14 12l4 29q6 61 -25 98t-98 37q-46 0 -82 -18.5t-53 -50.5q-13 -30 -39 -27l-65 6q-15 2 -22 12t-3 25q25 74 102 121t177 47q120 0 186.5 -65t54.5 -164l-53 -439q-6 -32 -37 -32h-67q-14 0 -22 8.5t-5 23.5v11q2 8 -2 10t-10 -4q-68 -62 -185 -62
q-103 0 -158.5 50.5t-43.5 146.5q12 103 94 164t209 61zM348 844q69 0 122.5 39t59.5 96l9 63q2 5 -1.5 9t-9.5 4h-112q-76 0 -123 -27.5t-53 -83.5q-6 -51 23 -75.5t85 -24.5zM66 600q2 15 11.5 24t24.5 9h502q32 0 29 -33l-10 -82q-7 -33 -37 -33h-502q-32 0 -29 33z" />
    <glyph glyph-name="guillemotleft" unicode="&#xab;" horiz-adv-x="1032" 
d="M532 258q8 -17 1.5 -28t-25.5 -11h-152q-24 0 -34 21l-164 313q-13 23 6 45l239 313q16 21 41 21h152q19 0 22.5 -11t-8.5 -28l-241 -309q-6 -8 0 -17zM864 258q8 -17 1.5 -28t-25.5 -11h-152q-24 0 -35 21l-164 313q-12 21 5 45l241 313q16 21 41 21h152q19 0 22.5 -11
t-8.5 -28l-242 -309q-6 -8 0 -17z" />
    <glyph glyph-name="logicalnot" unicode="&#xac;" horiz-adv-x="974" 
d="M109 694q2 15 11.5 24t24.5 9h783q15 0 22 -9t4 -24l-45 -375q-1 -15 -11 -23.5t-24 -8.5h-135q-31 0 -28 32l22 191q3 12 -10 12h-604q-14 0 -21 9t-6 24z" />
    <glyph glyph-name="uni00AD" unicode="&#xad;" horiz-adv-x="802" 
d="M119 514q-32 0 -29 33l19 139q1 15 10.5 24t23.5 9h611q31 0 28 -33l-18 -139q-1 -15 -11 -24t-24 -9h-610z" />
    <glyph glyph-name="registered" unicode="&#xae;" horiz-adv-x="888" 
d="M582 1456q170 0 272 -115.5t80 -285.5q-22 -178 -152 -296t-301 -118q-168 0 -269 118.5t-79 295.5q22 170 151.5 285.5t297.5 115.5zM494 739q130 0 228.5 90.5t115.5 225.5q15 129 -62 217t-207 88q-127 0 -224 -88t-112 -217q-17 -135 58 -225.5t203 -90.5zM678 1122
q-9 -66 -60 -94q-8 -5 -8 -16l27 -111q6 -37 -31 -37h-18q-26 0 -33 27l-25 110q-3 11 -12 11h-8q-11 0 -14 -13l-13 -102q-1 -15 -10.5 -24t-23.5 -9h-19q-32 0 -29 33l39 309q1 15 11 24t24 9h105q50 0 77 -33.5t21 -83.5zM528 1167q-12 0 -12 -12l-8 -68q-3 -12 10 -12
h29q20 0 33.5 13t15.5 32q3 21 -7.5 34t-29.5 13h-31z" />
    <glyph glyph-name="macron" unicode="&#xaf;" horiz-adv-x="565" 
d="M139 1194q-31 0 -28 33l12 98q1 15 11.5 24t25.5 9h502q15 0 22 -9t4 -24l-10 -98q-7 -33 -37 -33h-502z" />
    <glyph glyph-name="degree" unicode="&#xb0;" horiz-adv-x="751" 
d="M455 975q-138 0 -223 100t-66 242q17 141 126 239.5t247 98.5t221.5 -98.5t66.5 -239.5q-19 -143 -126 -242.5t-246 -99.5zM475 1135q74 0 131 53t66 129q9 77 -35 129.5t-117 52.5q-74 0 -131.5 -53t-66.5 -129q-10 -76 34.5 -129t118.5 -53z" />
    <glyph glyph-name="plusminus" unicode="&#xb1;" horiz-adv-x="974" 
d="M655 893q0 -12 11 -12h280q32 0 29 -33l-19 -139q-3 -33 -34 -33h-281q-12 0 -12 -12l-37 -285q-3 -33 -35 -33h-133q-32 0 -29 33l37 285q0 12 -12 12h-281q-31 0 -28 33l16 139q7 33 37 33h282q13 0 13 12l37 293q1 15 10.5 24t23.5 9h134q31 0 28 -33zM55 0
q-15 0 -22 9t-4 24l16 139q1 15 11 24t24 9h784q14 0 21 -9t6 -24l-17 -139q-2 -15 -11.5 -24t-24.5 -9h-783z" />
    <glyph glyph-name="uni00B2" unicode="&#xb2;" horiz-adv-x="669" 
d="M164 870q-14 0 -21 9t-6 24l8 78q3 22 23 39q140 135 289 287q127 127 135 192q5 46 -24 76.5t-81 30.5q-53 0 -89 -31t-40 -80l-2 -12q-1 -15 -10.5 -24t-23.5 -9h-91q-15 0 -22 9t-4 24l4 37q17 100 99 160.5t196 60.5q121 0 186 -68.5t53 -171.5q-14 -100 -129 -227
q-77 -88 -247 -254q-7 -4 -5.5 -9t9.5 -5h299q31 0 28 -33l-10 -70q-3 -33 -35 -33h-489z" />
    <glyph glyph-name="uni00B3" unicode="&#xb3;" horiz-adv-x="641" 
d="M680 1288q20 -58 8 -143q-7 -69 -43 -139q-39 -70 -107 -109t-153 -39q-89 0 -149.5 46.5t-79.5 125.5q-9 41 -6 82q3 33 34 33h92q30 0 27 -31q0 -21 4 -45q8 -34 33 -55t61 -21q65 0 103 56q29 43 35 100q6 65 -11 106q-21 56 -88 56q-22 0 -41 -8q-27 -12 -41 8
l-36 53q-13 26 8 47l198 168q6 5 4 9.5t-8 4.5h-268q-32 0 -29 33l9 70q2 15 11.5 24t24.5 9h449q32 0 29 -33l-11 -78q-3 -24 -20 -41l-174 -158q-13 -10 6 -14q95 -20 129 -117z" />
    <glyph glyph-name="acute" unicode="&#xb4;" horiz-adv-x="452" 
d="M195 1178q-19 0 -25 11t6 28l127 194q13 23 39 23h158q20 0 24 -11t-10 -28l-149 -197q-15 -20 -41 -20h-129z" />
    <glyph glyph-name="uni00B5" unicode="&#xb5;" horiz-adv-x="1091" 
d="M819 1014q7 33 37 33h164q32 0 29 -33l-121 -981q-1 -15 -11 -24t-24 -9h-166q-32 0 -29 33l9 53q0 8 -4.5 9.5t-10.5 -5.5q-90 -104 -254 -104q-61 0 -110 14q-15 4 -15 -10l-45 -367q-7 -33 -37 -33h-165q-32 0 -29 33l172 1391q3 33 35 33h166q31 0 28 -33l-76 -615
q-11 -97 30.5 -154t129.5 -57q89 0 150 58t71 153z" />
    <glyph glyph-name="paragraph" unicode="&#xb6;" horiz-adv-x="1208" 
d="M666 1434h512q15 0 22 -9t4 -24l-217 -1778q-1 -15 -11.5 -24t-25.5 -9h-106q-32 0 -29 33l201 1628q0 13 -10 13h-209q-13 0 -13 -13l-200 -1628q-1 -15 -11.5 -24t-25.5 -9h-109q-15 0 -22 9t-4 24l106 877q0 12 -10 12q-187 17 -290.5 143.5t-80.5 317.5
q25 201 171 331t358 130z" />
    <glyph glyph-name="periodcentered" unicode="&#xb7;" horiz-adv-x="321" 
d="M98 -2q-68 0 -107.5 45.5t-31.5 112.5q7 63 61 109t117 46q64 0 108.5 -46t35.5 -109q-8 -66 -60.5 -112t-122.5 -46z" />
    <glyph glyph-name="cedilla" unicode="&#xb8;" horiz-adv-x="315" 
d="M-59 -375q-26 9 -19 39l19 64q9 30 41 24q37 -10 69 3t43 48q24 69 -61 158q-15 15 -10.5 27t26.5 12h78q23 0 37 -14q123 -117 74 -248q-19 -51 -56.5 -81.5t-81 -39t-83.5 -6t-76 13.5z" />
    <glyph glyph-name="uni00B9" unicode="&#xb9;" horiz-adv-x="376" 
d="M307 1722q21 9 39 9h100q32 0 29 -33l-98 -795q-1 -15 -11 -24t-24 -9h-90q-32 0 -29 33l84 676q0 13 -10 10l-45 -6q-15 -3 -23.5 4.5t-7.5 24.5l6 53q6 25 29 37z" />
    <glyph glyph-name="ordmasculine" unicode="&#xba;" horiz-adv-x="710" 
d="M408 748q-94 0 -157 51t-85 143q-19 69 -6 158q10 93 43 160q41 91 118 140.5t175 49.5q91 0 153 -49.5t84 -138.5q15 -66 4 -160q-9 -80 -43 -160q-44 -92 -119.5 -143t-166.5 -51zM424 879q40 0 76.5 26.5t56.5 73.5q26 64 31 121q9 70 0 119q-9 47 -39.5 73.5
t-73.5 26.5q-88 0 -137 -100q-23 -60 -31 -119q-6 -61 2 -121q7 -47 38 -73.5t77 -26.5zM102 485q-29 0 -26 33l10 88q1 15 11.5 24t25.5 9h545q31 0 28 -33l-10 -88q-7 -33 -37 -33h-547z" />
    <glyph glyph-name="guillemotright" unicode="&#xbb;" horiz-adv-x="1032" 
d="M178 219q-20 0 -24 11t8 28l241 309q7 11 3 17l-164 309q-9 17 -2.5 28t26.5 11h150q26 0 37 -21l163 -313q13 -23 -6 -45l-241 -313q-16 -21 -39 -21h-152zM510 219q-20 0 -24 11t8 28l241 309q7 10 2 17l-164 309q-9 17 -2 28t27 11h150q26 0 34 -21l166 -313
q13 -23 -6 -45l-242 -313q-16 -21 -38 -21h-152z" />
    <glyph glyph-name="onequarter" unicode="&#xbc;" horiz-adv-x="1613" 
d="M340 606q-3 -33 -35 -33h-90q-15 0 -22.5 9t-4.5 24l82 676q3 13 -10 10l-45 -6q-15 -3 -23.5 4.5t-7.5 24.5l9 53q3 26 28 37l49 20q21 9 39 9h101q31 0 28 -33zM1149 1411q16 23 41 23h98q19 0 24 -11t-7 -28l-965 -1372q-13 -23 -41 -23h-100q-19 0 -23 11t8 28z
M1526 362q31 0 28 -32l-10 -76q-3 -33 -35 -33h-26q-13 0 -13 -12l-22 -176q-1 -15 -11 -24t-24 -9h-88q-32 0 -29 33l23 176q0 12 -10 12h-342q-15 0 -22.5 9t-4.5 24l6 61q3 21 12 39l271 482q13 24 39 24h94q37 0 18 -39l-247 -444q-6 -15 8 -15h184q11 0 14 13l17 137
q1 15 11.5 24t25.5 9h86q31 0 28 -33l-16 -137q-2 -5 1 -9t9 -4h25z" />
    <glyph glyph-name="onehalf" unicode="&#xbd;" horiz-adv-x="1572" 
d="M340 606q-3 -33 -35 -33h-90q-15 0 -22.5 9t-4.5 24l82 676q3 13 -10 10l-45 -6q-15 -3 -23.5 4.5t-7.5 24.5l9 53q3 26 28 37l49 20q21 9 39 9h101q31 0 28 -33zM1149 1411q16 23 41 23h98q19 0 24 -11t-7 -28l-965 -1372q-13 -23 -41 -23h-100q-19 0 -23 11t8 28z
M1163 150q-7 -4 -5.5 -9.5t9.5 -5.5h299q32 0 29 -33l-8 -69q-7 -33 -37 -33h-489q-14 0 -21 9t-6 24l10 78q3 24 21 39q140 134 288 286q128 128 136 193q6 46 -23.5 76t-81.5 30q-53 0 -89 -30.5t-40 -79.5l-2 -13q-3 -32 -35 -32h-90q-30 0 -27 32l5 37
q17 100 98.5 160.5t195.5 60.5q123 0 187.5 -68t52.5 -171q-14 -100 -127 -228q-65 -72 -250 -253z" />
    <glyph glyph-name="threequarters" unicode="&#xbe;" horiz-adv-x="1800" 
d="M610 719q-39 -70 -107 -109t-153 -39q-89 0 -149.5 46.5t-79.5 125.5q-9 41 -6 82q3 33 35 33h90q28 0 28 -31q0 -21 4 -45q6 -34 32 -54.5t63 -20.5q65 0 102 55q26 44 35 100q6 64 -12 107q-18 55 -86 55q-22 0 -41 -8q-28 -13 -43 8l-35 53q-16 26 8 47l197 168
q7 4 5 9.5t-10 5.5h-268q-29 0 -26 32l8 70q1 15 11.5 24t25.5 9h448q14 0 22 -9t5 -24l-8 -78q-3 -24 -23 -41l-174 -157q-11 -11 4 -15q95 -19 133 -117q19 -65 8 -143q-7 -69 -43 -139zM1335 1411q16 23 41 23h99q19 0 24 -11t-6 -28l-967 -1372q-13 -23 -39 -23h-102
q-17 0 -21 11t7 28zM1714 362q30 0 27 -32l-8 -76q-7 -33 -37 -33h-27q-4 0 -8 -3.5t-4 -8.5l-23 -176q-3 -33 -35 -33h-88q-15 0 -22 9t-4 24l20 176q2 5 -1 8.5t-9 3.5h-342q-14 0 -22 9t-5 24l7 61q3 23 14 39l268 482q13 24 39 24h94q17 0 22.5 -10t-3.5 -29l-248 -444
q-6 -15 8 -15h186q13 0 13 13l16 137q7 33 37 33h88q14 0 21 -9t6 -24l-17 -137q-2 -5 1.5 -9t9.5 -4h26z" />
    <glyph glyph-name="questiondown" unicode="&#xbf;" horiz-adv-x="993" 
d="M608 1026q63 0 101 -42.5t30 -104.5q-7 -61 -56.5 -104.5t-111.5 -43.5q-61 0 -100.5 43.5t-32.5 104.5t57.5 104t112.5 43zM647 586q32 0 29 -33l-10 -76q-7 -57 -31.5 -104.5t-59 -80.5t-75 -63t-81 -57.5t-74.5 -56.5t-58 -68t-29 -84q-10 -79 37 -127.5t135 -48.5
q92 0 154 51t71 131l4 35q7 34 37 31l166 -8q13 -1 21 -10t6 -21l-2 -27q-23 -178 -159 -288.5t-331 -110.5q-192 0 -294 105.5t-80 279.5q8 69 34.5 127t61.5 96.5t76.5 71t82 59.5t74.5 53t57.5 59t28.5 71l6 61q7 33 37 33h166z" />
    <glyph glyph-name="Agrave" unicode="&#xc0;" horiz-adv-x="1288" 
d="M879 1604q6 -17 -2 -28t-27 -11h-129q-27 0 -35 20l-104 197q-8 17 -1.5 28t25.5 11h158q25 0 35 -23zM975 0q-27 0 -33 27l-35 211q0 10 -12 10h-520q-12 0 -17 -10l-86 -211q-12 -27 -41 -27h-180q-15 0 -20.5 10t0.5 27l594 1370q12 27 39 27h231q27 0 33 -27
l258 -1370q3 -17 -5.5 -27t-23.5 -10h-182zM446 449q-6 -15 9 -15h405q12 0 12 15l-120 696q-1 5 -4 6.5t-6 0t-5 -6.5z" />
    <glyph glyph-name="Aacute" unicode="&#xc1;" horiz-adv-x="1288" 
d="M1016 1821q20 0 24 -11t-8 -28l-151 -197q-15 -20 -41 -20h-129q-19 0 -25 11t6 28l127 194q16 23 41 23h156zM975 0q-27 0 -33 27l-35 211q0 10 -12 10h-520q-12 0 -17 -10l-86 -211q-12 -27 -41 -27h-180q-15 0 -20.5 10t0.5 27l594 1370q12 27 39 27h231q27 0 33 -27
l258 -1370q3 -17 -5.5 -27t-23.5 -10h-182zM446 449q-6 -15 9 -15h405q12 0 12 15l-120 696q-1 5 -4 6.5t-6 0t-5 -6.5z" />
    <glyph glyph-name="Acircumflex" unicode="&#xc2;" horiz-adv-x="1288" 
d="M817 1708q-1 4 -6 4t-10 -4l-103 -131q-18 -21 -41 -21h-116q-20 0 -24.5 12t9.5 27l170 201q15 21 39 21h172q21 0 35 -21l123 -199q9 -15 1.5 -28t-26.5 -13h-116q-23 0 -35 21zM975 0q-27 0 -33 27l-35 211q0 10 -12 10h-520q-12 0 -17 -10l-86 -211q-12 -27 -41 -27
h-180q-15 0 -20.5 10t0.5 27l594 1370q12 27 39 27h231q27 0 33 -27l258 -1370q3 -17 -5.5 -27t-23.5 -10h-182zM446 449q-6 -15 9 -15h405q12 0 12 15l-120 696q-1 5 -4 6.5t-6 0t-5 -6.5z" />
    <glyph glyph-name="Atilde" unicode="&#xc3;" horiz-adv-x="1288" 
d="M727 1661q-50 0 -84 -39q-23 -29 -45 -10l-49 41q-23 16 -8 43q75 123 188 123q25 0 48.5 -7.5t37 -15.5t37.5 -24q54 -39 90 -39q49 0 80 41q25 29 47 10l49 -37q22 -16 6 -45q-42 -64 -95 -95.5t-103 -31.5q-9 0 -17.5 1t-17 3t-14.5 3.5t-14.5 6t-12.5 6.5t-13 8
t-11 7.5t-12 8t-11 7.5q-43 35 -76 35zM975 0q-27 0 -33 27l-35 211q0 10 -12 10h-520q-12 0 -17 -10l-86 -211q-12 -27 -41 -27h-180q-15 0 -20.5 10t0.5 27l594 1370q12 27 39 27h231q27 0 33 -27l258 -1370q3 -17 -5.5 -27t-23.5 -10h-182zM446 449q-6 -15 9 -15h405
q12 0 12 15l-120 696q-1 5 -4 6.5t-6 0t-5 -6.5z" />
    <glyph glyph-name="Adieresis" unicode="&#xc4;" horiz-adv-x="1288" 
d="M612 1577q-56 0 -85.5 35t-22.5 92q6 56 45 91.5t94 35.5q54 0 84 -35t23 -92t-45.5 -92t-92.5 -35zM977 1577q-55 0 -85 35t-24 92q8 57 46.5 92t93.5 35t84.5 -35t21.5 -92q-6 -57 -44 -92t-93 -35zM975 0q-27 0 -33 27l-35 211q0 10 -12 10h-520q-12 0 -17 -10
l-86 -211q-12 -27 -41 -27h-180q-15 0 -20.5 10t0.5 27l594 1370q12 27 39 27h231q27 0 33 -27l258 -1370q3 -17 -5.5 -27t-23.5 -10h-182zM446 449q-6 -15 9 -15h405q12 0 12 15l-120 696q-1 5 -4 6.5t-6 0t-5 -6.5z" />
    <glyph glyph-name="Aring" unicode="&#xc5;" horiz-adv-x="1288" 
d="M788 1540q-91 0 -145.5 64.5t-42.5 156.5q10 93 81.5 157t162.5 64t145.5 -63.5t42.5 -157.5q-10 -92 -81.5 -156.5t-162.5 -64.5zM829 1872q-44 0 -79 -32t-41 -79q-6 -45 21.5 -76.5t72.5 -31.5q43 0 79 31.5t42 76.5q6 46 -22.5 78.5t-72.5 32.5zM975 0q-27 0 -33 27
l-35 211q0 10 -12 10h-520q-12 0 -17 -10l-86 -211q-12 -27 -41 -27h-180q-15 0 -20.5 10t0.5 27l594 1370q12 27 39 27h231q27 0 33 -27l258 -1370q3 -17 -5.5 -27t-23.5 -10h-182zM446 449q-6 -15 9 -15h405q12 0 12 15l-120 696q-1 5 -4 6.5t-6 0t-5 -6.5z" />
    <glyph glyph-name="AE" unicode="&#xc6;" horiz-adv-x="1880" 
d="M1905 1262q-1 -15 -11 -24t-24 -9h-637q-12 0 -12 -12l-47 -379q0 -13 10 -13h413q33 0 27 -32l-16 -140q-1 -15 -11 -23.5t-24 -8.5h-414q-11 0 -14 -13l-47 -391q-2 -5 1 -8.5t9 -3.5h635q32 0 29 -33l-17 -139q-7 -33 -37 -33h-846q-31 0 -28 33l24 203q3 12 -10 12
h-428q-11 0 -14 -8l-133 -215q-16 -25 -41 -25h-187q-17 0 -21.5 11t5.5 28l850 1370q16 25 41 25h964q32 0 29 -33zM545 449q-9 -15 6 -15h332q4 0 8 3.5t4 8.5l84 689q2 9 -3 11t-9 -7z" />
    <glyph glyph-name="Ccedilla" unicode="&#xc7;" horiz-adv-x="1208" 
d="M1188 979q-4 -11 -33 -14l-170 -11q-14 -1 -22.5 2.5t-8.5 8.5l2 12q15 122 -48.5 195t-184.5 73t-203.5 -73t-97.5 -195l-64 -522q-15 -120 50 -193.5t186 -73.5q120 0 202 73.5t97 193.5q0 11 9.5 17t23.5 5l166 -8q29 -5 30 -10v-10q-25 -196 -160.5 -322t-336.5 -141
q-8 -2 -11 -6.5t2 -10.5q94 -108 50 -221q-19 -51 -56.5 -81.5t-81 -39t-83.5 -6t-76 13.5q-27 10 -17 39l17 64q9 30 41 24q38 -9 69.5 4t44.5 48q28 79 -88 180l-12 6q-160 40 -239 163t-56 302l61 506q26 216 179.5 347.5t378.5 131.5q224 0 345 -127t95 -334v-10z" />
    <glyph glyph-name="Egrave" unicode="&#xc8;" horiz-adv-x="1175" 
d="M852 1628q6 -17 -2.5 -28t-26.5 -11h-129q-27 0 -35 21l-104 196q-8 17 -1 28t26 11h157q26 0 35 -22zM1202 1262q-1 -15 -11.5 -24t-25.5 -9h-667q-13 0 -13 -12l-47 -379q0 -13 11 -13h446q30 0 27 -32l-17 -140q-6 -32 -37 -32h-444q-11 0 -14 -13l-48 -391
q0 -12 11 -12h667q32 0 29 -33l-18 -139q-1 -15 -11 -24t-24 -9h-879q-31 0 -28 33l167 1368q7 33 37 33h879q14 0 21 -9t6 -24z" />
    <glyph glyph-name="Eacute" unicode="&#xc9;" horiz-adv-x="1175" 
d="M989 1845q20 0 24.5 -11t-9.5 -28l-150 -196q-16 -21 -41 -21h-129q-19 0 -24.5 11t6.5 28l127 195q13 22 38 22h158zM1202 1262q-1 -15 -11.5 -24t-25.5 -9h-667q-13 0 -13 -12l-47 -379q0 -13 11 -13h446q30 0 27 -32l-17 -140q-6 -32 -37 -32h-444q-11 0 -14 -13
l-48 -391q0 -12 11 -12h667q32 0 29 -33l-18 -139q-1 -15 -11 -24t-24 -9h-879q-31 0 -28 33l167 1368q7 33 37 33h879q14 0 21 -9t6 -24z" />
    <glyph glyph-name="Ecircumflex" unicode="&#xca;" horiz-adv-x="1175" 
d="M791 1733q-1 5 -7 5t-10 -5l-102 -131q-18 -21 -41 -21h-117q-20 0 -24 12t10 27l168 201q17 20 41 20h172q21 0 34 -20l123 -199q9 -15 1.5 -28t-27.5 -13h-115q-23 0 -35 21zM1202 1262q-1 -15 -11.5 -24t-25.5 -9h-667q-13 0 -13 -12l-47 -379q0 -13 11 -13h446
q30 0 27 -32l-17 -140q-6 -32 -37 -32h-444q-11 0 -14 -13l-48 -391q0 -12 11 -12h667q32 0 29 -33l-18 -139q-1 -15 -11 -24t-24 -9h-879q-31 0 -28 33l167 1368q7 33 37 33h879q14 0 21 -9t6 -24z" />
    <glyph glyph-name="Edieresis" unicode="&#xcb;" horiz-adv-x="1175" 
d="M586 1602q-56 0 -86 35t-23 92q6 57 44.5 91.5t94.5 34.5q54 0 83.5 -34.5t23.5 -91.5q-8 -57 -45.5 -92t-91.5 -35zM950 1602q-55 0 -84.5 35t-23.5 92q8 57 46 91.5t93 34.5t84.5 -34.5t21.5 -91.5q-6 -57 -44 -92t-93 -35zM1202 1262q-1 -15 -11.5 -24t-25.5 -9h-667
q-13 0 -13 -12l-47 -379q0 -13 11 -13h446q30 0 27 -32l-17 -140q-6 -32 -37 -32h-444q-11 0 -14 -13l-48 -391q0 -12 11 -12h667q32 0 29 -33l-18 -139q-1 -15 -11 -24t-24 -9h-879q-31 0 -28 33l167 1368q7 33 37 33h879q14 0 21 -9t6 -24z" />
    <glyph glyph-name="Igrave" unicode="&#xcc;" horiz-adv-x="520" 
d="M502 1628q7 -17 -1.5 -28t-27.5 -11h-129q-24 0 -35 21l-102 196q-9 17 -2.5 28t26.5 11h156q26 0 35 -22zM137 0q-31 0 -28 33l167 1368q7 33 37 33h166q32 0 29 -33l-168 -1368q-1 -15 -11.5 -24t-25.5 -9h-166z" />
    <glyph glyph-name="Iacute" unicode="&#xcd;" horiz-adv-x="520" 
d="M334 1589q-18 0 -23.5 11t4.5 28l127 195q16 22 41 22h156q20 0 24 -11t-8 -28l-151 -196q-16 -21 -41 -21h-129zM137 0q-31 0 -28 33l167 1368q7 33 37 33h166q32 0 29 -33l-168 -1368q-1 -15 -11.5 -24t-25.5 -9h-166z" />
    <glyph glyph-name="Icircumflex" unicode="&#xce;" horiz-adv-x="520" 
d="M164 1581q-19 0 -23 12t9 27l169 201q14 20 39 20h172q22 0 35 -20l123 -199q9 -15 2 -28t-26 -13h-117q-23 0 -35 21l-72 131q-2 5 -6.5 5t-7.5 -5l-104 -131q-18 -21 -41 -21h-117zM137 0q-31 0 -28 33l167 1368q7 33 37 33h166q32 0 29 -33l-168 -1368
q-1 -15 -11.5 -24t-25.5 -9h-166z" />
    <glyph glyph-name="Idieresis" unicode="&#xcf;" horiz-adv-x="520" 
d="M236 1602q-55 0 -85.5 35.5t-23.5 91.5q6 56 45.5 91t95.5 35q54 0 83 -34.5t22 -91.5q-6 -57 -44.5 -92t-92.5 -35zM600 1602q-55 0 -84.5 35t-23.5 92q8 57 46 91.5t93 34.5t84.5 -34.5t23.5 -91.5q-8 -57 -46 -92t-93 -35zM137 0q-31 0 -28 33l167 1368q7 33 37 33
h166q32 0 29 -33l-168 -1368q-1 -15 -11.5 -24t-25.5 -9h-166z" />
    <glyph glyph-name="Eth" unicode="&#xd0;" horiz-adv-x="1339" 
d="M901 1434q215 0 330 -114t92 -306l-74 -594q-23 -192 -165.5 -306t-358.5 -114h-477q-14 0 -22 9t-5 24l76 614q0 12 -12 12h-68q-14 0 -21 9t-6 24l13 99q1 15 11 23.5t24 8.5h67q11 0 14 13l70 565q3 33 35 33h477zM1024 457l63 518q13 117 -41.5 185.5t-160.5 68.5
h-275q-11 0 -14 -12l-47 -381q0 -13 10 -13h174q33 0 27 -32l-12 -99q-3 -33 -35 -33h-172q-12 0 -15 -12l-53 -430q0 -12 10 -12h277q105 0 177 68.5t87 183.5z" />
    <glyph glyph-name="Ntilde" unicode="&#xd1;" horiz-adv-x="1318" 
d="M938 1599q-25 0 -50.5 9.5t-37.5 17.5t-35 25q-43 35 -78 35q-50 0 -84 -39q-23 -30 -45 -11l-49 41q-23 17 -6 43q72 123 188 123q24 0 47 -7.5t36.5 -15.5t37.5 -24q54 -39 90 -39q48 0 82 41q23 29 45 10l49 -36q23 -17 -4 -60q-40 -56 -90.5 -84.5t-95.5 -28.5z
M137 0q-31 0 -28 33l167 1368q7 33 37 33h158q29 0 39 -23l440 -938q3 -8 8.5 -6.5t6.5 10.5l112 924q7 33 37 33h166q32 0 29 -33l-168 -1368q-1 -15 -11.5 -24t-25.5 -9h-162q-27 0 -37 23l-440 944q-5 8 -9.5 6.5t-4.5 -10.5l-113 -930q-3 -33 -37 -33h-164z" />
    <glyph glyph-name="Ograve" unicode="&#xd2;" horiz-adv-x="1232" 
d="M856 1620q7 -17 -1.5 -28t-27.5 -11h-129q-24 0 -34 21l-103 196q-9 17 -2 28t27 11h155q26 0 35 -22zM573 -20q-226 0 -348 138t-94 365l57 467q28 224 184 362t382 138q229 0 351.5 -138t94.5 -362l-57 -467q-29 -227 -186 -365t-384 -138zM598 184q126 0 211 79.5
t102 211.5l58 477q17 132 -49 212.5t-191 80.5q-124 0 -209 -80.5t-100 -212.5l-60 -477q-17 -131 48.5 -211t189.5 -80z" />
    <glyph glyph-name="Oacute" unicode="&#xd3;" horiz-adv-x="1232" 
d="M688 1581q-18 0 -23 11t5 28l127 195q16 22 41 22h157q19 0 23 -11t-8 -28l-152 -196q-16 -21 -41 -21h-129zM573 -20q-226 0 -348 138t-94 365l57 467q28 224 184 362t382 138q229 0 351.5 -138t94.5 -362l-57 -467q-29 -227 -186 -365t-384 -138zM598 184
q126 0 211 79.5t102 211.5l58 477q17 132 -49 212.5t-191 80.5q-124 0 -209 -80.5t-100 -212.5l-60 -477q-17 -131 48.5 -211t189.5 -80z" />
    <glyph glyph-name="Ocircumflex" unicode="&#xd4;" horiz-adv-x="1232" 
d="M518 1573q-19 0 -23 12t9 27l170 200q18 21 41 21h170q21 0 35 -21l122 -198q10 -15 2.5 -28t-26.5 -13h-115q-26 0 -37 20l-69 131q-3 4 -8.5 4t-8.5 -4l-104 -131q-14 -20 -39 -20h-119zM573 -20q-226 0 -348 138t-94 365l57 467q28 224 184 362t382 138
q229 0 351.5 -138t94.5 -362l-57 -467q-29 -227 -186 -365t-384 -138zM598 184q126 0 211 79.5t102 211.5l58 477q17 132 -49 212.5t-191 80.5q-124 0 -209 -80.5t-100 -212.5l-60 -477q-17 -131 48.5 -211t189.5 -80z" />
    <glyph glyph-name="Otilde" unicode="&#xd5;" horiz-adv-x="1232" 
d="M905 1591q-25 0 -50.5 9t-38 17.5t-34.5 24.5q-43 35 -77 35q-50 0 -84 -39q-23 -30 -46 -10l-49 41q-23 17 -6 43q72 123 189 123q24 0 47 -7.5t35.5 -15t37.5 -24.5q54 -39 91 -39q47 0 81 41q23 30 46 10l49 -37q22 -17 -4 -59q-40 -56 -91 -84.5t-96 -28.5zM573 -20
q-226 0 -348 138t-94 365l57 467q28 224 184 362t382 138q229 0 351.5 -138t94.5 -362l-57 -467q-29 -227 -186 -365t-384 -138zM598 184q126 0 211 79.5t102 211.5l58 477q17 132 -49 212.5t-191 80.5q-124 0 -209 -80.5t-100 -212.5l-60 -477q-17 -131 48.5 -211
t189.5 -80z" />
    <glyph glyph-name="Odieresis" unicode="&#xd6;" horiz-adv-x="1232" 
d="M592 1593q-56 0 -86.5 35t-24.5 92q7 57 46.5 92t95.5 35q54 0 82.5 -35t21.5 -92q-6 -56 -44 -91.5t-91 -35.5zM954 1593q-55 0 -84.5 35t-21.5 92q6 57 44 92t93 35t85 -35t24 -92q-8 -57 -46.5 -92t-93.5 -35zM573 -20q-226 0 -348 138t-94 365l57 467q28 224 184 362
t382 138q229 0 351.5 -138t94.5 -362l-57 -467q-29 -227 -186 -365t-384 -138zM598 184q126 0 211 79.5t102 211.5l58 477q17 132 -49 212.5t-191 80.5q-124 0 -209 -80.5t-100 -212.5l-60 -477q-17 -131 48.5 -211t189.5 -80z" />
    <glyph glyph-name="multiply" unicode="&#xd7;" horiz-adv-x="868" 
d="M856 903q19 -23 -6 -45l-225 -205q-9 -9 -2 -16l172 -203q19 -22 -7 -45l-106 -98q-25 -22 -45 0l-172 203q-1 3 -6 3t-8 -3l-228 -207q-23 -23 -43 0l-84 100q-17 24 6 45l228 207q3 3 3.5 8t-1.5 8l-178 207q-20 22 6 45l106 99q26 23 43 0l178 -207q3 -3 8.5 -3t8.5 3
l223 205q25 22 43 0z" />
    <glyph glyph-name="Oslash" unicode="&#xd8;" horiz-adv-x="1247" 
d="M1104 1346q-7 -10 0 -17q138 -141 108 -379l-57 -467q-28 -227 -183.5 -365t-383.5 -138q-147 0 -264 65q-10 7 -17 -4l-59 -100q-16 -25 -41 -25h-90q-18 0 -23 11t4 28l111 184q6 9 0 17q-88 130 -64 327l58 467q28 224 183.5 362t381.5 138q117 0 207 -37q8 -4 16 6
l49 84q16 25 41 25h93q17 0 22 -11t-4 -28zM375 475q-4 -28 -4 -45q0 -9 5.5 -9.5t10.5 7.5l473 778q3 4 1.5 10t-5.5 7q-52 22 -113 22q-124 0 -209 -80.5t-102 -212.5zM924 475l59 477q10 88 -14 148q-1 5 -4 6.5t-6 0t-5 -6.5l-514 -840q-4 -11 2 -16q66 -60 170 -60
q126 0 211.5 79.5t100.5 211.5z" />
    <glyph glyph-name="Ugrave" unicode="&#xd9;" horiz-adv-x="1263" 
d="M874 1630q6 -17 -2 -28t-26 -11h-129q-27 0 -37 21l-102 196q-17 39 24 39h158q26 0 35 -22zM590 -16q-224 0 -345 131.5t-95 349.5l116 936q3 33 35 33h168q14 0 21 -9t6 -24l-115 -940q-15 -122 49 -197.5t184 -75.5q121 0 205 75.5t99 197.5l114 940q1 15 11 24t24 9
h168q32 0 29 -33l-117 -936q-26 -218 -178.5 -349.5t-378.5 -131.5z" />
    <glyph glyph-name="Uacute" unicode="&#xda;" horiz-adv-x="1263" 
d="M707 1591q-19 0 -25 11t4 28l127 195q16 22 41 22h158q41 0 14 -39l-152 -196q-13 -21 -38 -21h-129zM590 -16q-224 0 -345 131.5t-95 349.5l116 936q3 33 35 33h168q14 0 21 -9t6 -24l-115 -940q-15 -122 49 -197.5t184 -75.5q121 0 205 75.5t99 197.5l114 940
q1 15 11 24t24 9h168q32 0 29 -33l-117 -936q-26 -218 -178.5 -349.5t-378.5 -131.5z" />
    <glyph glyph-name="Ucircumflex" unicode="&#xdb;" horiz-adv-x="1263" 
d="M537 1583q-20 0 -25.5 12t8.5 27l170 201q17 20 41 20h170q20 0 37 -20l121 -199q11 -15 3 -28t-28 -13h-114q-23 0 -35 21l-72 131q-3 5 -8 5t-8 -5l-103 -131q-18 -21 -41 -21h-116zM590 -16q-224 0 -345 131.5t-95 349.5l116 936q3 33 35 33h168q14 0 21 -9t6 -24
l-115 -940q-15 -122 49 -197.5t184 -75.5q121 0 205 75.5t99 197.5l114 940q1 15 11 24t24 9h168q32 0 29 -33l-117 -936q-26 -218 -178.5 -349.5t-378.5 -131.5z" />
    <glyph glyph-name="Udieresis" unicode="&#xdc;" horiz-adv-x="1263" 
d="M608 1604q-55 0 -85.5 35t-24.5 92q7 57 46 92t95 35q54 0 83 -35t23 -92q-8 -57 -45.5 -92t-91.5 -35zM971 1604q-54 0 -84 35t-23 92q6 57 45 92t95 35q55 0 84.5 -35t21.5 -92q-6 -57 -44.5 -92t-94.5 -35zM590 -16q-224 0 -345 131.5t-95 349.5l116 936q3 33 35 33
h168q14 0 21 -9t6 -24l-115 -940q-15 -122 49 -197.5t184 -75.5q121 0 205 75.5t99 197.5l114 940q1 15 11 24t24 9h168q32 0 29 -33l-117 -936q-26 -218 -178.5 -349.5t-378.5 -131.5z" />
    <glyph glyph-name="Yacute" unicode="&#xdd;" horiz-adv-x="1189" 
d="M666 1565q-19 0 -25 11t4 28l127 194q16 23 41 23h158q19 0 22.5 -11t-8.5 -28l-151 -197q-12 -20 -39 -20h-129zM471 2q-32 0 -29 33l68 538q0 2 -1 7.5t-1 7.5l-303 807q-6 18 1 28.5t25 10.5h181q25 0 34 -25l203 -563q3 -6 8.5 -6t8.5 6l344 563q16 25 41 25h182
q18 0 22.5 -11t-6.5 -28l-504 -807q-3 -9 -6 -15l-65 -538q-1 -15 -11.5 -24t-25.5 -9h-166z" />
    <glyph glyph-name="Thorn" unicode="&#xde;" horiz-adv-x="1144" 
d="M766 1137q189 0 290.5 -117.5t78.5 -306.5q-23 -185 -159.5 -300.5t-322.5 -115.5h-280q-12 0 -15 -12l-30 -252q-1 -15 -11 -24t-24 -9h-168q-15 0 -22.5 9t-4.5 24l168 1368q3 33 35 33h168q14 0 21 -9t6 -24l-31 -252q0 -12 10 -12h291zM653 492q101 0 169.5 58
t80.5 159q13 103 -41 163t-155 60h-256q-12 0 -15 -12l-51 -416q0 -12 10 -12h258z" />
    <glyph glyph-name="germandbls" unicode="&#xdf;" horiz-adv-x="1198" 
d="M117 2q-14 0 -21 9t-6 24l119 975q28 208 166.5 324t353.5 116q225 0 342.5 -103.5t95.5 -285.5q-22 -198 -184 -281q-15 -6 -2 -16q72 -42 107 -134.5t20 -215.5q-25 -199 -171.5 -306.5t-408.5 -107.5h-86q-29 0 -26 33l16 137q1 15 11 24t24 9h119q129 0 205 61
t90 172q14 114 -40.5 175.5t-172.5 62.5h-113q-14 0 -22 9t-5 24l15 122q1 15 11.5 24t25.5 9h116q105 0 168.5 52.5t71.5 140.5q10 87 -42 139.5t-173 52.5q-104 0 -185 -57.5t-94 -157.5l-123 -999q-1 -15 -10.5 -24t-23.5 -9z" />
    <glyph glyph-name="agrave" unicode="&#xe0;" horiz-adv-x="1093" 
d="M739 1217q6 -17 -1.5 -28t-26.5 -11h-129q-25 0 -35 20l-103 197q-9 17 -2 28t27 11h156q24 0 34 -23zM823 1014q1 15 11.5 24t25.5 9h166q32 0 29 -33l-121 -981q-1 -15 -11.5 -24t-25.5 -9h-166q-32 0 -29 33l7 49q1 7 -3.5 9.5t-9.5 -3.5q-96 -104 -237 -104
q-140 0 -229 76t-117 210q-22 118 -4 256q16 144 63 250q62 136 169 211.5t251 75.5q136 0 213 -96q5 -7 8.5 -5.5t5.5 9.5zM686 287q57 80 76 237q19 161 -21 244q-43 90 -137 90q-103 0 -170 -86q-70 -92 -88 -250q-18 -148 19 -233q42 -99 155 -99q98 0 166 97z" />
    <glyph glyph-name="aacute" unicode="&#xe1;" horiz-adv-x="1093" 
d="M877 1434q20 0 24 -11t-8 -28l-152 -197q-15 -20 -41 -20h-129q-18 0 -23 11t5 28l127 194q16 23 41 23h156zM823 1014q1 15 11.5 24t25.5 9h166q32 0 29 -33l-121 -981q-1 -15 -11.5 -24t-25.5 -9h-166q-32 0 -29 33l7 49q1 7 -3.5 9.5t-9.5 -3.5q-96 -104 -237 -104
q-140 0 -229 76t-117 210q-22 118 -4 256q16 144 63 250q62 136 169 211.5t251 75.5q136 0 213 -96q5 -7 8.5 -5.5t5.5 9.5zM686 287q57 80 76 237q19 161 -21 244q-43 90 -137 90q-103 0 -170 -86q-70 -92 -88 -250q-18 -148 19 -233q42 -99 155 -99q98 0 166 97z" />
    <glyph glyph-name="acircumflex" unicode="&#xe2;" horiz-adv-x="1093" 
d="M678 1321q-2 5 -6.5 5t-7.5 -5l-105 -131q-18 -21 -41 -21h-117q-19 0 -23 12t9 27l170 201q15 21 39 21h172q21 0 35 -21l123 -199q9 -15 1.5 -28t-26.5 -13h-117q-22 0 -34 21zM823 1014q1 15 11.5 24t25.5 9h166q32 0 29 -33l-121 -981q-1 -15 -11.5 -24t-25.5 -9
h-166q-32 0 -29 33l7 49q1 7 -3.5 9.5t-9.5 -3.5q-96 -104 -237 -104q-140 0 -229 76t-117 210q-22 118 -4 256q16 144 63 250q62 136 169 211.5t251 75.5q136 0 213 -96q5 -7 8.5 -5.5t5.5 9.5zM686 287q57 80 76 237q19 161 -21 244q-43 90 -137 90q-103 0 -170 -86
q-70 -92 -88 -250q-18 -148 19 -233q42 -99 155 -99q98 0 166 97z" />
    <glyph glyph-name="atilde" unicode="&#xe3;" horiz-adv-x="1093" 
d="M588 1274q-50 0 -84 -39q-23 -29 -45 -10l-49 41q-24 17 -7 43q72 123 189 123q24 0 47 -8t36 -15.5t38 -24.5q53 -38 90 -38q50 0 80 40q26 29 47 11l49 -37q22 -16 6 -45q-42 -63 -95.5 -95t-101.5 -32q-26 0 -51.5 9.5t-36 16.5t-34.5 25q-43 35 -78 35zM823 1014
q1 15 11.5 24t25.5 9h166q32 0 29 -33l-121 -981q-1 -15 -11.5 -24t-25.5 -9h-166q-32 0 -29 33l7 49q1 7 -3.5 9.5t-9.5 -3.5q-96 -104 -237 -104q-140 0 -229 76t-117 210q-22 118 -4 256q16 144 63 250q62 136 169 211.5t251 75.5q136 0 213 -96q5 -7 8.5 -5.5t5.5 9.5z
M686 287q57 80 76 237q19 161 -21 244q-43 90 -137 90q-103 0 -170 -86q-70 -92 -88 -250q-18 -148 19 -233q42 -99 155 -99q98 0 166 97z" />
    <glyph glyph-name="adieresis" unicode="&#xe4;" horiz-adv-x="1093" 
d="M473 1190q-56 0 -85.5 35t-22.5 92q6 57 45.5 92t95.5 35q54 0 82.5 -35t21.5 -92q-6 -57 -44.5 -92t-92.5 -35zM838 1190q-55 0 -85 35t-24 92q8 57 46 92t93 35t85 -35t24 -92q-8 -57 -46 -92t-93 -35zM823 1014q1 15 11.5 24t25.5 9h166q32 0 29 -33l-121 -981
q-1 -15 -11.5 -24t-25.5 -9h-166q-32 0 -29 33l7 49q1 7 -3.5 9.5t-9.5 -3.5q-96 -104 -237 -104q-140 0 -229 76t-117 210q-22 118 -4 256q16 144 63 250q62 136 169 211.5t251 75.5q136 0 213 -96q5 -7 8.5 -5.5t5.5 9.5zM686 287q57 80 76 237q19 161 -21 244
q-43 90 -137 90q-103 0 -170 -86q-70 -92 -88 -250q-18 -148 19 -233q42 -99 155 -99q98 0 166 97z" />
    <glyph glyph-name="aring" unicode="&#xe5;" horiz-adv-x="1093" 
d="M649 1153q-90 0 -144.5 64t-43.5 157q10 93 81.5 157t162.5 64t145.5 -63.5t42.5 -157.5q-11 -92 -81.5 -156.5t-162.5 -64.5zM690 1485q-45 0 -80 -32t-41 -79q-4 -46 23.5 -77t71.5 -31q43 0 78.5 31.5t41.5 76.5q6 46 -22 78.5t-72 32.5zM823 1014q1 15 11.5 24
t25.5 9h166q32 0 29 -33l-121 -981q-1 -15 -11.5 -24t-25.5 -9h-166q-32 0 -29 33l7 49q1 7 -3.5 9.5t-9.5 -3.5q-96 -104 -237 -104q-140 0 -229 76t-117 210q-22 118 -4 256q16 144 63 250q62 136 169 211.5t251 75.5q136 0 213 -96q5 -7 8.5 -5.5t5.5 9.5zM686 287
q57 80 76 237q19 161 -21 244q-43 90 -137 90q-103 0 -170 -86q-70 -92 -88 -250q-18 -148 19 -233q42 -99 155 -99q98 0 166 97z" />
    <glyph glyph-name="ae" unicode="&#xe6;" horiz-adv-x="1662" 
d="M397 -16q-108 0 -186 29.5t-120.5 98t-29.5 171.5q18 152 136.5 241.5t314.5 89.5h211q11 0 14 13l6 51q9 82 -33 131t-137 49q-67 0 -118 -25.5t-74 -70.5q-12 -30 -39 -27l-166 23q-14 2 -20 12t-2 25q35 117 158 192.5t278 75.5q108 0 189.5 -47t113.5 -113
q8 -11 16 0q48 63 137.5 111.5t188.5 48.5q137 0 241.5 -81t125.5 -216q15 -80 -9 -293q-3 -35 -34 -35h-596q-12 0 -15 -12q-1 -12 -4 -59q1 -83 62 -125.5t159 -42.5q144 0 226 102q9 13 22 16t23 -6l86 -75q22 -19 4 -46q-65 -90 -174.5 -148t-239.5 -58
q-109 0 -191.5 44.5t-115.5 114.5q-9 9 -14 4q-56 -74 -162 -118.5t-232 -44.5zM971 627q0 -13 10 -13h387q12 0 12 13q3 44 0 75q-8 69 -54.5 112.5t-121.5 43.5t-131.5 -42.5t-83.5 -113.5q-13 -52 -18 -75zM451 164q95 0 168 49.5t83 140.5l11 72q0 12 -13 12h-163
q-106 0 -170.5 -35t-73.5 -102q-7 -61 36.5 -99t121.5 -38z" />
    <glyph glyph-name="ccedilla" unicode="&#xe7;" horiz-adv-x="1054" 
d="M748 334l4 10q4 10 16.5 21t24.5 8l161 -27q32 -7 23 -37q-12 -38 -14 -41q-45 -110 -143.5 -183t-225.5 -95q-6 0 -8 -5t2 -10q99 -107 55 -227q-19 -51 -57 -81.5t-82 -39t-84 -6t-76 13.5q-23 9 -16 39l18 64q9 30 39 24q39 -9 70.5 4t44.5 48q25 76 -80 174l-12 6
q-114 23 -188.5 99t-96.5 190q-21 93 -2 245q16 144 61 242q59 136 180.5 214.5t274.5 78.5q156 0 261.5 -79.5t127.5 -201.5q7 -38 4 -57q3 -30 -31 -37l-168 -26q-30 -6 -30 24l-4 27q-6 62 -57 103.5t-128 41.5t-133.5 -40t-83.5 -109q-29 -71 -43 -183q-14 -117 -4 -182
q11 -72 57.5 -114t124.5 -42q75 0 134 40t84 106z" />
    <glyph glyph-name="egrave" unicode="&#xe8;" horiz-adv-x="1077" 
d="M729 1233q7 -17 -1.5 -28t-27.5 -11h-129q-24 0 -34 20l-103 197q-9 17 -2 28t27 11h155q25 0 35 -23zM561 184q147 6 230 113q23 29 45 10l86 -78q20 -20 4 -45q-69 -94 -176 -147t-236 -53q-158 0 -254.5 76.5t-126.5 213.5q-25 118 -8 254q16 140 47 217
q56 146 178.5 232t280.5 86q373 0 383 -420q3 -79 -6 -168q-1 -15 -11 -24t-24 -9h-617q-11 0 -14 -12q-3 -60 2 -90q12 -73 69 -114.5t148 -41.5zM604 858q-76 0 -129 -38t-80 -105q-12 -25 -26 -86q-3 -13 8 -13h399q12 0 15 13q0 46 -3 73q-9 72 -57.5 114t-126.5 42z
" />
    <glyph glyph-name="eacute" unicode="&#xe9;" horiz-adv-x="1077" 
d="M868 1450q19 0 23 -11t-8 -28l-152 -197q-15 -20 -41 -20h-129q-18 0 -23 11t5 28l127 194q16 23 41 23h157zM561 184q147 6 230 113q23 29 45 10l86 -78q20 -20 4 -45q-69 -94 -176 -147t-236 -53q-158 0 -254.5 76.5t-126.5 213.5q-25 118 -8 254q16 140 47 217
q56 146 178.5 232t280.5 86q373 0 383 -420q3 -79 -6 -168q-1 -15 -11 -24t-24 -9h-617q-11 0 -14 -12q-3 -60 2 -90q12 -73 69 -114.5t148 -41.5zM604 858q-76 0 -129 -38t-80 -105q-12 -25 -26 -86q-3 -13 8 -13h399q12 0 15 13q0 46 -3 73q-9 72 -57.5 114t-126.5 42z
" />
    <glyph glyph-name="ecircumflex" unicode="&#xea;" horiz-adv-x="1077" 
d="M670 1337q-3 5 -8.5 5t-8.5 -5l-104 -131q-14 -20 -39 -20h-119q-19 0 -23 12t9 27l170 200q18 21 41 21h170q21 0 35 -21l122 -198q10 -15 2.5 -28t-26.5 -13h-115q-26 0 -37 20zM561 184q147 6 230 113q23 29 45 10l86 -78q20 -20 4 -45q-69 -94 -176 -147t-236 -53
q-158 0 -254.5 76.5t-126.5 213.5q-25 118 -8 254q16 140 47 217q56 146 178.5 232t280.5 86q373 0 383 -420q3 -79 -6 -168q-1 -15 -11 -24t-24 -9h-617q-11 0 -14 -12q-3 -60 2 -90q12 -73 69 -114.5t148 -41.5zM604 858q-76 0 -129 -38t-80 -105q-12 -25 -26 -86
q-3 -13 8 -13h399q12 0 15 13q0 46 -3 73q-9 72 -57.5 114t-126.5 42z" />
    <glyph glyph-name="edieresis" unicode="&#xeb;" horiz-adv-x="1077" 
d="M465 1206q-56 0 -86.5 35t-24.5 92q7 57 46.5 92t95.5 35q54 0 82.5 -35t21.5 -92q-6 -56 -44 -91.5t-91 -35.5zM827 1206q-55 0 -84.5 35t-21.5 92q6 57 44 92t93 35t85 -35t24 -92q-8 -57 -46.5 -92t-93.5 -35zM561 184q147 6 230 113q23 29 45 10l86 -78q20 -20 4 -45
q-69 -94 -176 -147t-236 -53q-158 0 -254.5 76.5t-126.5 213.5q-25 118 -8 254q16 140 47 217q56 146 178.5 232t280.5 86q373 0 383 -420q3 -79 -6 -168q-1 -15 -11 -24t-24 -9h-617q-11 0 -14 -12q-3 -60 2 -90q12 -73 69 -114.5t148 -41.5zM604 858q-76 0 -129 -38
t-80 -105q-12 -25 -26 -86q-3 -13 8 -13h399q12 0 15 13q0 46 -3 73q-9 72 -57.5 114t-126.5 42z" />
    <glyph glyph-name="igrave" unicode="&#xec;" horiz-adv-x="464" 
d="M418 1239q7 -17 -1.5 -28t-27.5 -11h-129q-24 0 -35 21l-102 196q-9 17 -2.5 28t26.5 11h156q26 0 35 -22zM106 0q-29 0 -26 33l121 981q3 33 35 33h167q14 0 21 -9t6 -24l-121 -981q-3 -33 -35 -33h-168z" />
    <glyph glyph-name="iacute" unicode="&#xed;" horiz-adv-x="464" 
d="M250 1200q-18 0 -23.5 11t4.5 28l127 195q16 22 41 22h158q19 0 22.5 -11t-8.5 -28l-151 -196q-16 -21 -41 -21h-129zM106 0q-29 0 -26 33l121 981q3 33 35 33h167q14 0 21 -9t6 -24l-121 -981q-3 -33 -35 -33h-168z" />
    <glyph glyph-name="icircumflex" unicode="&#xee;" horiz-adv-x="464" 
d="M80 1192q-19 0 -23 12t9 27l170 201q17 20 40 20h170q22 0 35 -20l123 -199q11 -15 3.5 -28t-27.5 -13h-115q-26 0 -37 20l-70 131q-3 5 -8 5t-8 -5l-104 -131q-14 -20 -39 -20h-119zM106 0q-29 0 -26 33l121 981q3 33 35 33h167q14 0 21 -9t6 -24l-121 -981
q-3 -33 -35 -33h-168z" />
    <glyph glyph-name="idieresis" unicode="&#xef;" horiz-adv-x="546" 
d="M195 1212q-56 0 -86 35t-23 92q6 57 44.5 92t94.5 35q54 0 83.5 -35t23.5 -92q-8 -57 -45.5 -92t-91.5 -35zM559 1212q-56 0 -85.5 35t-22.5 92q8 57 46 92t93 35t84.5 -35t21.5 -92q-6 -57 -44.5 -92t-92.5 -35zM152 0q-32 0 -29 33l121 981q1 15 11 24t24 9h167
q15 0 22.5 -9t4.5 -24l-119 -981q-7 -33 -37 -33h-165z" />
    <glyph glyph-name="eth" unicode="&#xf0;" horiz-adv-x="1064" 
d="M987 741q9 -109 -10 -254q-18 -146 -53 -229q-60 -123 -179.5 -198.5t-267.5 -75.5t-247.5 74t-129.5 200q-18 84 -2 227q18 143 60 228q36 84 104.5 142t155.5 77q68 23 165.5 20.5t149.5 -34.5q10 -5 10 8q-25 92 -73 186q-6 10 -17 6l-190 -53q-32 -10 -35 22l-10 68
q-6 29 26 39l129 37q18 4 9 16q-48 66 -121 146q-12 15 -6 28t26 13h176q24 0 37 -19l86 -119q9 -9 17 -6l157 45q15 4 25 -2.5t12 -21.5l8 -66q3 -30 -26 -39l-96 -26q-16 -4 -9 -15q58 -104 88.5 -203.5t30.5 -220.5zM707 313q24 55 36 166q14 108 2 162q-9 68 -54 107.5
t-116 39.5t-125 -39.5t-81 -107.5q-26 -59 -37 -162q-14 -110 -2 -166q9 -68 54 -108.5t116 -40.5q69 0 124.5 41t82.5 108z" />
    <glyph glyph-name="ntilde" unicode="&#xf1;" horiz-adv-x="1081" 
d="M588 1274q-50 0 -84 -39q-23 -29 -45 -10l-49 41q-24 17 -7 43q72 123 189 123q24 0 47 -8t36 -15.5t38 -24.5q53 -38 90 -38q50 0 80 40q26 29 47 11l49 -37q22 -16 6 -45q-42 -63 -95.5 -95t-101.5 -32q-26 0 -51.5 9.5t-36 16.5t-34.5 25q-43 35 -78 35zM700 1063
q162 0 247 -99t65 -268l-82 -663q-1 -15 -11 -24t-24 -9h-168q-32 0 -29 33l76 614q12 94 -33 152.5t-131 58.5q-85 0 -145 -57.5t-72 -151.5l-76 -616q-1 -15 -10.5 -24t-23.5 -9h-168q-14 0 -22 9t-5 24l121 981q3 33 35 33h166q31 0 28 -33l-6 -56q-2 -8 2 -10t10 4
q92 111 256 111z" />
    <glyph glyph-name="ograve" unicode="&#xf2;" horiz-adv-x="1105" 
d="M745 1233q6 -17 -1.5 -28t-26.5 -11h-129q-25 0 -35 20l-104 197q-8 17 -1.5 28t25.5 11h158q25 0 35 -23zM514 -16q-157 0 -260 82t-129 227q-21 97 -4 233q16 133 59 234q63 143 186.5 223t282.5 80q152 0 252 -79.5t129 -221.5q22 -103 6 -234q-16 -127 -61 -233
q-63 -146 -185 -228.5t-276 -82.5zM539 188q73 0 131.5 43.5t89.5 120.5q33 67 43 172q12 101 2 172q-14 77 -63 119.5t-124 42.5q-76 0 -134 -42.5t-91 -119.5q-30 -82 -41 -172q-12 -98 -2 -172q14 -77 63.5 -120.5t125.5 -43.5z" />
    <glyph glyph-name="oacute" unicode="&#xf3;" horiz-adv-x="1105" 
d="M578 1194q-19 0 -24 11t5 28l127 194q16 23 41 23h156q20 0 24 -11t-8 -28l-151 -197q-15 -20 -41 -20h-129zM514 -16q-157 0 -260 82t-129 227q-21 97 -4 233q16 133 59 234q63 143 186.5 223t282.5 80q152 0 252 -79.5t129 -221.5q22 -103 6 -234q-16 -127 -61 -233
q-63 -146 -185 -228.5t-276 -82.5zM539 188q73 0 131.5 43.5t89.5 120.5q33 67 43 172q12 101 2 172q-14 77 -63 119.5t-124 42.5q-76 0 -134 -42.5t-91 -119.5q-30 -82 -41 -172q-12 -98 -2 -172q14 -77 63.5 -120.5t125.5 -43.5z" />
    <glyph glyph-name="ocircumflex" unicode="&#xf4;" horiz-adv-x="1105" 
d="M408 1186q-19 0 -23.5 12t8.5 27l170 200q15 21 39 21h172q21 0 35 -21l123 -198q9 -15 1.5 -28t-26.5 -13h-116q-24 0 -35 20l-72 131q-2 5 -6.5 5t-7.5 -5l-105 -131q-17 -20 -41 -20h-116zM514 -16q-157 0 -260 82t-129 227q-21 97 -4 233q16 133 59 234
q63 143 186.5 223t282.5 80q152 0 252 -79.5t129 -221.5q22 -103 6 -234q-16 -127 -61 -233q-63 -146 -185 -228.5t-276 -82.5zM539 188q73 0 131.5 43.5t89.5 120.5q33 67 43 172q12 101 2 172q-14 77 -63 119.5t-124 42.5q-76 0 -134 -42.5t-91 -119.5q-30 -82 -41 -172
q-12 -98 -2 -172q14 -77 63.5 -120.5t125.5 -43.5z" />
    <glyph glyph-name="otilde" unicode="&#xf5;" horiz-adv-x="1105" 
d="M793 1204q-9 0 -17.5 1t-17 3t-14.5 3.5t-14.5 6t-12.5 6.5t-13 8t-11 7.5t-12 8t-11 7.5q-43 35 -76 35q-50 0 -84 -39q-23 -29 -45 -10l-49 41q-23 17 -6 43q72 123 186 123q25 0 48.5 -7.5t37 -15.5t37.5 -24q54 -39 90 -39q49 0 80 41q25 29 47 10l49 -37
q22 -17 -4 -59q-40 -57 -91 -85t-97 -28zM514 -16q-157 0 -260 82t-129 227q-21 97 -4 233q16 133 59 234q63 143 186.5 223t282.5 80q152 0 252 -79.5t129 -221.5q22 -103 6 -234q-16 -127 -61 -233q-63 -146 -185 -228.5t-276 -82.5zM539 188q73 0 131.5 43.5t89.5 120.5
q33 67 43 172q12 101 2 172q-14 77 -63 119.5t-124 42.5q-76 0 -134 -42.5t-91 -119.5q-30 -82 -41 -172q-12 -98 -2 -172q14 -77 63.5 -120.5t125.5 -43.5z" />
    <glyph glyph-name="odieresis" unicode="&#xf6;" horiz-adv-x="1105" 
d="M479 1206q-56 0 -85.5 35t-22.5 92q6 57 45.5 92t95.5 35q53 0 82 -35t22 -92q-6 -57 -44.5 -92t-92.5 -35zM844 1206q-55 0 -85 35t-24 92q8 57 46 92t93 35t85 -35t24 -92q-8 -57 -46 -92t-93 -35zM514 -16q-157 0 -260 82t-129 227q-21 97 -4 233q16 133 59 234
q63 143 186.5 223t282.5 80q152 0 252 -79.5t129 -221.5q22 -103 6 -234q-16 -127 -61 -233q-63 -146 -185 -228.5t-276 -82.5zM539 188q73 0 131.5 43.5t89.5 120.5q33 67 43 172q12 101 2 172q-14 77 -63 119.5t-124 42.5q-76 0 -134 -42.5t-91 -119.5q-30 -82 -41 -172
q-12 -98 -2 -172q14 -77 63.5 -120.5t125.5 -43.5z" />
    <glyph glyph-name="divide" unicode="&#xf7;" horiz-adv-x="974" 
d="M553 870q-52 0 -83.5 38.5t-25.5 92.5q6 51 48 89t94 38q51 0 82.5 -38t25.5 -89q-6 -54 -48 -92.5t-93 -38.5zM123 545q-32 0 -29 33l19 139q3 33 34 33h783q31 0 28 -33l-18 -139q-3 -33 -35 -33h-782zM471 193q-52 0 -84.5 37.5t-26.5 91.5q8 53 49 90t93 37
q51 0 83.5 -37.5t26.5 -89.5q-7 -54 -48.5 -91.5t-92.5 -37.5z" />
    <glyph glyph-name="oslash" unicode="&#xf8;" horiz-adv-x="1122" 
d="M1042 762q25 -103 9 -234q-16 -128 -64 -233q-61 -146 -183 -228.5t-276 -82.5q-133 0 -225 59q-9 6 -16 -4l-82 -105q-22 -25 -45 -6l-66 56q-23 20 -4 45l92 118q8 8 2 17q-32 51 -45 129q-21 97 -4 233q15 130 60 234q63 143 186.5 223t282.5 80q106 0 190 -41
q10 -3 16 6l72 90q22 25 45 6l66 -55q24 -20 2 -45l-72 -96q-8 -8 -2 -17q46 -66 61 -149zM367 524q-7 -52 -7 -127q0 -8 5.5 -8.5t11.5 6.5l336 432q11 11 -2 17q-32 14 -80 14q-75 0 -133 -42.5t-90 -119.5q-29 -69 -41 -172zM774 352q28 57 43 172q12 101 2 172
q-4 17 -16 2l-363 -460q-6 -12 2 -17q48 -33 111 -33q73 0 130.5 43.5t90.5 120.5z" />
    <glyph glyph-name="ugrave" unicode="&#xf9;" horiz-adv-x="1075" 
d="M721 1217q7 -17 -1.5 -28t-27.5 -11h-129q-25 0 -35 20l-102 197q-9 17 -2 28t27 11h155q24 0 37 -23zM807 1014q7 33 37 33h164q31 0 28 -33l-121 -981q-1 -15 -10.5 -24t-23.5 -9h-166q-14 0 -22 9t-5 24l6 53q0 8 -4 9.5t-10 -5.5q-90 -104 -254 -104
q-97 0 -171.5 37.5t-115 117.5t-26.5 191l84 682q3 33 34 33h168q14 0 21 -9t6 -24l-76 -615q-11 -97 30.5 -154t129.5 -57q89 0 150 58t73 153z" />
    <glyph glyph-name="uacute" unicode="&#xfa;" horiz-adv-x="1075" 
d="M860 1434q19 0 22.5 -11t-8.5 -28l-151 -197q-15 -20 -41 -20h-129q-18 0 -23 11t5 28l127 194q16 23 40 23h158zM807 1014q7 33 37 33h164q31 0 28 -33l-121 -981q-1 -15 -10.5 -24t-23.5 -9h-166q-14 0 -22 9t-5 24l6 53q0 8 -4 9.5t-10 -5.5q-90 -104 -254 -104
q-97 0 -171.5 37.5t-115 117.5t-26.5 191l84 682q3 33 34 33h168q14 0 21 -9t6 -24l-76 -615q-11 -97 30.5 -154t129.5 -57q89 0 150 58t73 153z" />
    <glyph glyph-name="ucircumflex" unicode="&#xfb;" horiz-adv-x="1075" 
d="M662 1321q-3 5 -8.5 5t-8.5 -5l-104 -131q-15 -21 -39 -21h-119q-19 0 -23 12t9 27l170 201q18 21 41 21h170q20 0 34 -21l123 -199q11 -15 3.5 -28t-27.5 -13h-115q-25 0 -37 21zM807 1014q7 33 37 33h164q31 0 28 -33l-121 -981q-1 -15 -10.5 -24t-23.5 -9h-166
q-14 0 -22 9t-5 24l6 53q0 8 -4 9.5t-10 -5.5q-90 -104 -254 -104q-97 0 -171.5 37.5t-115 117.5t-26.5 191l84 682q3 33 34 33h168q14 0 21 -9t6 -24l-76 -615q-11 -97 30.5 -154t129.5 -57q89 0 150 58t73 153z" />
    <glyph glyph-name="udieresis" unicode="&#xfc;" horiz-adv-x="1075" 
d="M457 1190q-56 0 -86.5 35t-24.5 92q7 57 46 92t95 35q54 0 83 -35t22 -92q-6 -57 -43.5 -92t-91.5 -35zM819 1190q-55 0 -84.5 35t-21.5 92q6 57 44.5 92t92.5 35q55 0 84.5 -35t23.5 -92q-8 -57 -46 -92t-93 -35zM807 1014q7 33 37 33h164q31 0 28 -33l-121 -981
q-1 -15 -10.5 -24t-23.5 -9h-166q-14 0 -22 9t-5 24l6 53q0 8 -4 9.5t-10 -5.5q-90 -104 -254 -104q-97 0 -171.5 37.5t-115 117.5t-26.5 191l84 682q3 33 34 33h168q14 0 21 -9t6 -24l-76 -615q-11 -97 30.5 -154t129.5 -57q89 0 150 58t73 153z" />
    <glyph glyph-name="yacute" unicode="&#xfd;" horiz-adv-x="970" 
d="M510 1194q-19 0 -24 11t6 28l126 194q16 23 41 23h156q20 0 24 -11t-8 -28l-151 -197q-15 -20 -41 -20h-129zM14 -408q-13 0 -10 33l16 131q1 14 6.5 23.5t10.5 9.5h12q119 0 175 39t106 164q2 6 2 16l-203 1002q-3 18 6 27.5t25 9.5h180q28 0 31 -27l112 -678
q1 -5 4 -6.5t6.5 0t6.5 6.5l270 678q12 27 39 27h180q16 0 22.5 -9t-1.5 -28l-480 -1067q-40 -87 -71.5 -141t-71.5 -98.5t-89 -66.5t-114 -33.5t-157 -11.5h-13z" />
    <glyph glyph-name="thorn" unicode="&#xfe;" horiz-adv-x="1075" 
d="M1016 776q20 -108 2 -250q-15 -141 -68 -256q-60 -133 -167.5 -209.5t-247.5 -76.5q-123 0 -197 84q-5 6 -8.5 3.5t-5.5 -10.5l-54 -438q-7 -33 -37 -33h-165q-32 0 -29 33l219 1778q3 33 35 33h168q29 0 26 -33l-49 -412q-1 -7 3 -9t10 3q89 80 217 80
q144 0 231.5 -75.5t116.5 -211.5zM702 289q60 87 78 233q18 162 -28 250q-45 86 -148 86q-95 0 -160 -90q-27 -39 -43 -80q-2 -6 -2 -16l-37 -297q-3 -7 0 -17q6 -37 19 -71q46 -97 143 -97q114 0 178 99z" />
    <glyph glyph-name="ydieresis" unicode="&#xff;" horiz-adv-x="970" 
d="M412 1206q-56 0 -86 35t-23 92q6 57 45.5 92t95.5 35q53 0 82.5 -35.5t22.5 -91.5q-6 -57 -44.5 -92t-92.5 -35zM776 1206q-55 0 -84.5 35t-23.5 92q8 57 46 92t93 35t84.5 -35t23.5 -92q-8 -57 -46 -92t-93 -35zM14 -408q-13 0 -10 33l16 131q1 14 6.5 23.5t10.5 9.5h12
q119 0 175 39t106 164q2 6 2 16l-203 1002q-3 18 6 27.5t25 9.5h180q28 0 31 -27l112 -678q1 -5 4 -6.5t6.5 0t6.5 6.5l270 678q12 27 39 27h180q16 0 22.5 -9t-1.5 -28l-480 -1067q-40 -87 -71.5 -141t-71.5 -98.5t-89 -66.5t-114 -33.5t-157 -11.5h-13z" />
    <glyph glyph-name="Amacron" unicode="&#x100;" horiz-adv-x="1288" 
d="M1067 1745q14 0 22 -9t5 -24l-13 -98q-3 -33 -34 -33h-502q-32 0 -29 33l12 98q1 15 11 24t24 9h504zM975 0q-27 0 -33 27l-35 211q0 10 -12 10h-520q-12 0 -17 -10l-86 -211q-12 -27 -41 -27h-180q-15 0 -20.5 10t0.5 27l594 1370q12 27 39 27h231q27 0 33 -27
l258 -1370q3 -17 -5.5 -27t-23.5 -10h-182zM446 449q-6 -15 9 -15h405q12 0 12 15l-120 696q-1 5 -4 6.5t-6 0t-5 -6.5z" />
    <glyph glyph-name="amacron" unicode="&#x101;" horiz-adv-x="1093" 
d="M928 1358q15 0 22 -9t4 -24l-10 -98q-7 -33 -37 -33h-501q-32 0 -29 33l12 98q1 15 11.5 24t25.5 9h502zM823 1014q1 15 11.5 24t25.5 9h166q32 0 29 -33l-121 -981q-1 -15 -11.5 -24t-25.5 -9h-166q-32 0 -29 33l7 49q1 7 -3.5 9.5t-9.5 -3.5q-96 -104 -237 -104
q-140 0 -229 76t-117 210q-22 118 -4 256q16 144 63 250q62 136 169 211.5t251 75.5q136 0 213 -96q5 -7 8.5 -5.5t5.5 9.5zM686 287q57 80 76 237q19 161 -21 244q-43 90 -137 90q-103 0 -170 -86q-70 -92 -88 -250q-18 -148 19 -233q42 -99 155 -99q98 0 166 97z" />
    <glyph glyph-name="Abreve" unicode="&#x102;" horiz-adv-x="1288" 
d="M786 1518q-90 0 -149.5 56.5t-61.5 143.5q0 17 9.5 26t25.5 9h64q25 0 31 -31q3 -40 30 -66t66 -26q40 0 73.5 26t47.5 66q12 31 36 31h62q15 0 23 -9t4 -24q-22 -88 -96 -145t-165 -57zM975 0q-27 0 -33 27l-35 211q0 10 -12 10h-520q-12 0 -17 -10l-86 -211
q-12 -27 -41 -27h-180q-15 0 -20.5 10t0.5 27l594 1370q12 27 39 27h231q27 0 33 -27l258 -1370q3 -17 -5.5 -27t-23.5 -10h-182zM446 449q-6 -15 9 -15h405q12 0 12 15l-120 696q-1 5 -4 6.5t-6 0t-5 -6.5z" />
    <glyph glyph-name="abreve" unicode="&#x103;" horiz-adv-x="1093" 
d="M647 1130q-90 0 -149.5 57t-61.5 144q0 16 10.5 25.5t24.5 9.5h64q14 0 20.5 -7.5t9.5 -23.5q3 -40 30 -66t67 -26q39 0 72.5 26t47.5 66q12 31 37 31h62q15 0 23 -9t5 -24q-23 -88 -96.5 -145.5t-165.5 -57.5zM823 1014q1 15 11.5 24t25.5 9h166q32 0 29 -33l-121 -981
q-1 -15 -11.5 -24t-25.5 -9h-166q-32 0 -29 33l7 49q1 7 -3.5 9.5t-9.5 -3.5q-96 -104 -237 -104q-140 0 -229 76t-117 210q-22 118 -4 256q16 144 63 250q62 136 169 211.5t251 75.5q136 0 213 -96q5 -7 8.5 -5.5t5.5 9.5zM686 287q57 80 76 237q19 161 -21 244
q-43 90 -137 90q-103 0 -170 -86q-70 -92 -88 -250q-18 -148 19 -233q42 -99 155 -99q98 0 166 97z" />
    <glyph glyph-name="Aogonek" unicode="&#x104;" horiz-adv-x="1318" 
d="M989 -197q4 -35 32.5 -47.5t68.5 -3.5q31 5 34 -24l2 -64q0 -30 -26 -39q-38 -11 -79 -13.5t-83 6t-72 39t-37 81.5q-16 131 136 248q19 14 14 14h-4q-27 0 -33 27l-35 211q0 10 -12 10h-520q-12 0 -17 -10l-86 -211q-12 -27 -41 -27h-180q-15 0 -20.5 10t0.5 27
l594 1370q12 27 39 27h231q27 0 33 -27l258 -1370q6 -37 -17 -37h-16q-9 0 -20 -8q-152 -106 -144 -189zM446 449q-6 -15 9 -15h405q12 0 12 15l-120 696q-1 5 -4 6.5t-6 0t-5 -6.5z" />
    <glyph glyph-name="aogonek" unicode="&#x105;" horiz-adv-x="1191" 
d="M850 -248q32 6 35 -24l2 -64q0 -30 -29 -39q-38 -11 -78.5 -13.5t-82 6t-71 39t-36.5 81.5q-16 131 133 248q19 14 14 14h-6q-32 0 -29 33l7 49q1 7 -3.5 9.5t-9.5 -3.5q-96 -104 -237 -104q-140 0 -229 76t-117 210q-22 118 -4 256q16 144 63 250q62 136 169 211.5
t251 75.5q136 0 213 -96q5 -7 8.5 -5.5t5.5 9.5l4 43q1 15 11.5 24t25.5 9h166q32 0 29 -33l-121 -981q-3 -33 -16 -33h-7q-6 0 -14 -4q-156 -106 -147 -193q3 -35 31 -48t69 -3zM686 287q57 80 76 237q19 161 -21 244q-43 90 -137 90q-103 0 -170 -86q-70 -92 -88 -250
q-18 -148 19 -233q42 -99 155 -99q98 0 166 97z" />
    <glyph glyph-name="Cacute" unicode="&#x106;" horiz-adv-x="1208" 
d="M682 1581q-18 0 -23 11t5 28l127 195q16 22 40 22h158q19 0 23 -11t-8 -28l-152 -196q-16 -21 -41 -21h-129zM567 -16q-224 0 -345 132t-93 349l61 506q26 216 179.5 347.5t378.5 131.5q224 0 345 -127t95 -334q-3 -21 -33 -24l-170 -11q-14 -1 -22.5 2.5t-8.5 8.5l2 12
q15 122 -48.5 195t-184.5 73t-203.5 -73t-97.5 -195l-64 -522q-15 -120 50 -193.5t186 -73.5q120 0 202 73.5t97 193.5q0 11 9.5 17t23.5 5l166 -8q29 -5 30 -10v-10q-26 -211 -178.5 -338t-376.5 -127z" />
    <glyph glyph-name="cacute" unicode="&#x107;" horiz-adv-x="1054" 
d="M567 1194q-18 0 -23 11t5 28l127 194q16 23 41 23h155q20 0 24.5 -11t-7.5 -28l-152 -197q-15 -20 -41 -20h-129zM504 -16q-152 0 -253 80.5t-128 218.5q-21 93 -2 245q16 144 61 242q59 136 180.5 214.5t274.5 78.5q156 0 261.5 -79.5t127.5 -201.5q7 -38 4 -57
q3 -30 -31 -37l-168 -26q-30 -6 -30 24l-4 27q-6 62 -57 103.5t-128 41.5t-133.5 -40t-83.5 -109q-29 -71 -43 -183q-14 -117 -4 -182q11 -72 57.5 -114t124.5 -42q75 0 134 40t84 106l4 10q4 10 16.5 21t24.5 8l161 -27q32 -7 23 -37q-12 -38 -14 -41
q-55 -131 -179.5 -207.5t-279.5 -76.5z" />
    <glyph glyph-name="Cdotaccent" unicode="&#x10a;" horiz-adv-x="1208" 
d="M764 1575q-51 0 -79 33.5t-21 85.5q6 52 42 84t87 32t77.5 -31.5t20.5 -84.5t-41 -86t-86 -33zM567 -16q-224 0 -345 132t-93 349l61 506q26 216 179.5 347.5t378.5 131.5q224 0 345 -127t95 -334q-3 -21 -33 -24l-170 -11q-14 -1 -22.5 2.5t-8.5 8.5l2 12
q15 122 -48.5 195t-184.5 73t-203.5 -73t-97.5 -195l-64 -522q-15 -120 50 -193.5t186 -73.5q120 0 202 73.5t97 193.5q0 11 9.5 17t23.5 5l166 -8q29 -5 30 -10v-10q-26 -211 -178.5 -338t-376.5 -127z" />
    <glyph glyph-name="cdotaccent" unicode="&#x10b;" horiz-adv-x="1054" 
d="M649 1188q-51 0 -79.5 33t-22.5 86q7 52 43.5 84t87.5 32t77.5 -31.5t20.5 -84.5t-41 -86t-86 -33zM504 -16q-152 0 -253 80.5t-128 218.5q-21 93 -2 245q16 144 61 242q59 136 180.5 214.5t274.5 78.5q156 0 261.5 -79.5t127.5 -201.5q7 -38 4 -57q3 -30 -31 -37
l-168 -26q-30 -6 -30 24l-4 27q-6 62 -57 103.5t-128 41.5t-133.5 -40t-83.5 -109q-29 -71 -43 -183q-14 -117 -4 -182q11 -72 57.5 -114t124.5 -42q75 0 134 40t84 106l4 10q4 10 16.5 21t24.5 8l161 -27q32 -7 23 -37q-12 -38 -14 -41q-55 -131 -179.5 -207.5
t-279.5 -76.5z" />
    <glyph glyph-name="Ccaron" unicode="&#x10c;" horiz-adv-x="1208" 
d="M666 1561q-24 0 -35 20l-111 201q-7 17 0.5 28t26.5 11h115q22 0 34 -21l72 -131q2 -5 6.5 -5t7.5 5l105 131q18 21 41 21h110q19 0 23 -11t-8 -28l-160 -201q-14 -20 -39 -20h-188zM567 -16q-224 0 -345 132t-93 349l61 506q26 216 179.5 347.5t378.5 131.5
q224 0 345 -127t95 -334q-3 -21 -33 -24l-170 -11q-14 -1 -22.5 2.5t-8.5 8.5l2 12q15 122 -48.5 195t-184.5 73t-203.5 -73t-97.5 -195l-64 -522q-15 -120 50 -193.5t186 -73.5q120 0 202 73.5t97 193.5q0 11 9.5 17t23.5 5l166 -8q29 -5 30 -10v-10q-26 -211 -178.5 -338
t-376.5 -127z" />
    <glyph glyph-name="ccaron" unicode="&#x10d;" horiz-adv-x="1054" 
d="M551 1174q-24 0 -35 20l-110 201q-8 17 -1 28t27 11h113q25 0 37 -21l69 -131q3 -4 8.5 -4t8.5 4l104 131q15 21 39 21h113q19 0 22.5 -11t-8.5 -28l-160 -201q-17 -20 -41 -20h-186zM504 -16q-152 0 -253 80.5t-128 218.5q-21 93 -2 245q16 144 61 242
q59 136 180.5 214.5t274.5 78.5q156 0 261.5 -79.5t127.5 -201.5q7 -38 4 -57q3 -30 -31 -37l-168 -26q-30 -6 -30 24l-4 27q-6 62 -57 103.5t-128 41.5t-133.5 -40t-83.5 -109q-29 -71 -43 -183q-14 -117 -4 -182q11 -72 57.5 -114t124.5 -42q75 0 134 40t84 106l4 10
q4 10 16.5 21t24.5 8l161 -27q32 -7 23 -37q-12 -38 -14 -41q-55 -131 -179.5 -207.5t-279.5 -76.5z" />
    <glyph glyph-name="Dcaron" unicode="&#x10e;" horiz-adv-x="1226" 
d="M659 1546q-24 0 -36 21l-111 200q-7 17 0.5 28t26.5 11h114q24 0 35 -20l72 -133q2 -5 6.5 -5t7.5 5l105 133q17 20 41 20h110q20 0 24 -11t-10 -28l-159 -200q-15 -21 -39 -21h-187zM137 0q-31 0 -28 33l167 1368q7 33 37 33h478q214 0 329 -114.5t90 -305.5l-71 -594
q-25 -192 -168 -306t-357 -114h-477zM362 217q-3 -12 11 -12h276q104 0 175.5 68.5t86.5 183.5l66 518q13 117 -42.5 185.5t-162.5 68.5h-274q-13 0 -13 -12z" />
    <glyph glyph-name="dcaron" unicode="&#x10f;" horiz-adv-x="1359" 
d="M803 963q3 -4 6.5 -5t5.5 1.5t2 7.5l53 434q7 33 37 33h166q32 0 29 -33l-168 -1368q-1 -15 -11.5 -24t-25.5 -9h-166q-32 0 -29 33l9 53q0 8 -4.5 9.5t-10.5 -5.5q-95 -106 -239 -106q-140 0 -229 76t-117 210q-22 121 -5 256q15 141 64 250q62 136 169 211.5t251 75.5
q138 0 213 -100zM1276 1411q16 23 41 23h156q20 0 24 -11t-8 -28l-152 -197q-15 -20 -41 -20h-129q-18 0 -23 11t5 28zM684 287q57 80 76 237q19 161 -21 244q-43 90 -137 90q-103 0 -170 -86q-70 -92 -88 -250q-19 -149 18 -233q42 -99 156 -99q98 0 166 97z" />
    <glyph glyph-name="Dcroat" unicode="&#x110;" horiz-adv-x="1339" 
d="M901 1434q215 0 330 -114t92 -306l-74 -594q-23 -192 -165.5 -306t-358.5 -114h-477q-14 0 -22 9t-5 24l76 614q0 12 -12 12h-68q-14 0 -21 9t-6 24l13 99q1 15 11 23.5t24 8.5h67q11 0 14 13l70 565q3 33 35 33h477zM1024 457l63 518q13 117 -41.5 185.5t-160.5 68.5
h-275q-11 0 -14 -12l-47 -381q0 -13 10 -13h174q33 0 27 -32l-12 -99q-3 -33 -35 -33h-172q-12 0 -15 -12l-53 -430q0 -12 10 -12h277q105 0 177 68.5t87 183.5z" />
    <glyph glyph-name="dcroat" unicode="&#x111;" horiz-adv-x="1191" 
d="M1188 1300q32 0 29 -32l-11 -82q-1 -15 -11 -24t-24 -9h-88q-11 0 -14 -12l-135 -1108q-1 -15 -11.5 -24t-25.5 -9h-166q-32 0 -29 33l9 53q0 8 -4.5 9.5t-10.5 -5.5q-95 -106 -239 -106q-140 0 -229 76t-117 210q-22 121 -5 256q15 141 64 250q62 136 169 211.5
t251 75.5q138 0 213 -100q3 -4 6.5 -5t5.5 1.5t2 7.5l23 174q0 12 -11 12h-272q-32 0 -29 33l11 82q3 32 36 32h273q4 0 8 4t4 9l10 88q7 33 37 33h166q32 0 29 -33l-10 -88q-3 -13 10 -13h86zM684 287q57 80 76 237q19 161 -21 244q-43 90 -137 90q-103 0 -170 -86
q-70 -92 -88 -250q-19 -149 18 -233q42 -99 156 -99q98 0 166 97z" />
    <glyph glyph-name="Emacron" unicode="&#x112;" horiz-adv-x="1175" 
d="M1040 1769q30 0 27 -32l-12 -99q-3 -32 -35 -32h-504q-30 0 -27 32l13 99q1 15 11 23.5t24 8.5h503zM1202 1262q-1 -15 -11.5 -24t-25.5 -9h-667q-13 0 -13 -12l-47 -379q0 -13 11 -13h446q30 0 27 -32l-17 -140q-6 -32 -37 -32h-444q-11 0 -14 -13l-48 -391
q0 -12 11 -12h667q32 0 29 -33l-18 -139q-1 -15 -11 -24t-24 -9h-879q-31 0 -28 33l167 1368q7 33 37 33h879q14 0 21 -9t6 -24z" />
    <glyph glyph-name="emacron" unicode="&#x113;" horiz-adv-x="1077" 
d="M918 1374q31 0 28 -33l-12 -98q-1 -15 -11.5 -24t-25.5 -9h-502q-31 0 -28 33l12 98q1 15 11.5 24t25.5 9h502zM561 184q147 6 230 113q23 29 45 10l86 -78q20 -20 4 -45q-69 -94 -176 -147t-236 -53q-158 0 -254.5 76.5t-126.5 213.5q-25 118 -8 254q16 140 47 217
q56 146 178.5 232t280.5 86q373 0 383 -420q3 -79 -6 -168q-1 -15 -11 -24t-24 -9h-617q-11 0 -14 -12q-3 -60 2 -90q12 -73 69 -114.5t148 -41.5zM604 858q-76 0 -129 -38t-80 -105q-12 -25 -26 -86q-3 -13 8 -13h399q12 0 15 13q0 46 -3 73q-9 72 -57.5 114t-126.5 42z
" />
    <glyph glyph-name="Edotaccent" unicode="&#x116;" horiz-adv-x="1175" 
d="M764 1583q-51 0 -78.5 33t-21.5 86q6 52 42 84.5t87 32.5t78.5 -32t21.5 -85t-42 -86t-87 -33zM1202 1262q-1 -15 -11.5 -24t-25.5 -9h-667q-13 0 -13 -12l-47 -379q0 -13 11 -13h446q30 0 27 -32l-17 -140q-6 -32 -37 -32h-444q-11 0 -14 -13l-48 -391q0 -12 11 -12h667
q32 0 29 -33l-18 -139q-1 -15 -11 -24t-24 -9h-879q-31 0 -28 33l167 1368q7 33 37 33h879q14 0 21 -9t6 -24z" />
    <glyph glyph-name="edotaccent" unicode="&#x117;" horiz-adv-x="1077" 
d="M643 1188q-51 0 -79 33.5t-21 85.5q6 52 42 84t87 32t77.5 -31.5t20.5 -84.5t-41 -86t-86 -33zM561 184q147 6 230 113q23 29 45 10l86 -78q20 -20 4 -45q-69 -94 -176 -147t-236 -53q-158 0 -254.5 76.5t-126.5 213.5q-25 118 -8 254q16 140 47 217q56 146 178.5 232
t280.5 86q373 0 383 -420q3 -79 -6 -168q-1 -15 -11 -24t-24 -9h-617q-11 0 -14 -12q-3 -60 2 -90q12 -73 69 -114.5t148 -41.5zM604 858q-76 0 -129 -38t-80 -105q-12 -25 -26 -86q-3 -13 8 -13h399q12 0 15 13q0 46 -3 73q-9 72 -57.5 114t-126.5 42z" />
    <glyph glyph-name="Eogonek" unicode="&#x118;" horiz-adv-x="1175" 
d="M1202 1262q-1 -15 -11.5 -24t-25.5 -9h-667q-13 0 -13 -12l-47 -379q0 -13 11 -13h446q30 0 27 -32l-17 -140q-6 -32 -37 -32h-444q-11 0 -14 -13l-48 -391q0 -12 11 -12h667q32 0 29 -33l-18 -139q-1 -15 -11 -24t-24 -9h-354q-9 0 -15 -6q-121 -90 -115 -166
q4 -35 33 -48t70 -3q32 6 35 -25l2 -63q-3 -31 -29 -39q-38 -11 -78.5 -13.5t-82.5 5.5t-71.5 38.5t-35.5 81.5q-16 115 102 224q4 3 5 6.5t-1.5 5.5t-7.5 2h-336q-31 0 -28 33l167 1368q7 33 37 33h879q14 0 21 -9t6 -24z" />
    <glyph glyph-name="eogonek" unicode="&#x119;" horiz-adv-x="1077" 
d="M561 184q147 6 230 113q23 29 45 10l86 -78q20 -20 4 -45q-120 -162 -320 -192q-6 -2 -14 -6q-131 -96 -125 -176q4 -35 32.5 -48.5t67.5 -3.5q35 6 35 -24l2 -64q0 -31 -26 -39q-38 -11 -79 -13.5t-82.5 6t-71.5 39t-36 81.5q-16 122 113 233q15 12 -2 15
q-117 21 -189.5 94t-97.5 188q-25 118 -8 254q16 140 47 217q56 146 178.5 232t280.5 86q373 0 383 -420q3 -79 -6 -168q-1 -15 -11 -24t-24 -9h-617q-11 0 -14 -12q-3 -60 2 -90q12 -73 69 -114.5t148 -41.5zM604 858q-76 0 -129 -38t-80 -105q-12 -25 -26 -86
q-3 -13 8 -13h399q12 0 15 13q0 46 -3 73q-9 72 -57.5 114t-126.5 42z" />
    <glyph glyph-name="Ecaron" unicode="&#x11a;" horiz-adv-x="1175" 
d="M895 1589q-17 -20 -41 -20h-186q-24 0 -35 20l-111 201q-9 17 -1 28t28 11h113q22 0 34 -21l72 -131q3 -5 8 -5t8 5l103 131q18 21 41 21h110q20 0 24.5 -11t-7.5 -28zM1202 1262q-1 -15 -11.5 -24t-25.5 -9h-667q-13 0 -13 -12l-47 -379q0 -13 11 -13h446q30 0 27 -32
l-17 -140q-6 -32 -37 -32h-444q-11 0 -14 -13l-48 -391q0 -12 11 -12h667q32 0 29 -33l-18 -139q-1 -15 -11 -24t-24 -9h-879q-31 0 -28 33l167 1368q7 33 37 33h879q14 0 21 -9t6 -24z" />
    <glyph glyph-name="ecaron" unicode="&#x11b;" horiz-adv-x="1077" 
d="M772 1186q-18 -21 -41 -21h-186q-23 0 -35 21l-111 200q-9 17 -1 28t28 11h113q23 0 34 -20l72 -133q1 -4 7 -4t10 4l102 133q17 20 41 20h110q20 0 24.5 -11t-7.5 -28zM561 184q147 6 230 113q23 29 45 10l86 -78q20 -20 4 -45q-69 -94 -176 -147t-236 -53
q-158 0 -254.5 76.5t-126.5 213.5q-25 118 -8 254q16 140 47 217q56 146 178.5 232t280.5 86q373 0 383 -420q3 -79 -6 -168q-1 -15 -11 -24t-24 -9h-617q-11 0 -14 -12q-3 -60 2 -90q12 -73 69 -114.5t148 -41.5zM604 858q-76 0 -129 -38t-80 -105q-12 -25 -26 -86
q-3 -13 8 -13h399q12 0 15 13q0 46 -3 73q-9 72 -57.5 114t-126.5 42z" />
    <glyph glyph-name="Gbreve" unicode="&#x11e;" horiz-adv-x="1204" 
d="M756 1534q-90 0 -149.5 57t-61.5 144q0 16 10.5 25t26.5 9h63q26 0 29 -30q5 -40 31.5 -66t64.5 -26q40 0 73.5 26t47.5 66q12 30 37 30h61q15 0 23.5 -8.5t5.5 -23.5q-23 -88 -96.5 -145.5t-165.5 -57.5zM567 -16q-224 0 -344 133.5t-94 351.5l61 496q26 219 179.5 352
t378.5 133q221 0 342.5 -128.5t97.5 -324.5l-2 -8q-1 -15 -11 -24t-24 -9h-166q-13 0 -22 5.5t-7 13.5l2 16q14 111 -50 182.5t-185 71.5t-203.5 -74.5t-97.5 -197.5l-64 -512q-15 -122 53.5 -197.5t192.5 -75.5q118 0 195 64.5t90 177.5l16 125q0 12 -10 12h-236
q-15 0 -22 9t-4 24l16 135q3 33 35 33h442q32 0 29 -33l-31 -254q-29 -236 -179 -366.5t-378 -130.5z" />
    <glyph glyph-name="gbreve" unicode="&#x11f;" horiz-adv-x="1091" 
d="M668 1149q-90 0 -149.5 57t-61.5 144q0 34 35 34h63q25 0 31 -30q3 -40 30 -66t66 -26q40 0 73.5 26t47.5 66q12 30 37 30h61q16 0 23.5 -8.5t3.5 -23.5q-22 -88 -95.5 -145.5t-164.5 -57.5zM829 1014q1 15 11.5 24t25.5 9h166q32 0 29 -33l-117 -944q-11 -87 -38 -159
t-66.5 -122.5t-90 -89t-108 -59.5t-122 -34t-130.5 -12.5t-133 5.5q-26 3 -23 36l25 152q1 15 12.5 23t26.5 6q197 -18 297 40t121 220l2 12q0 18 -15 6q-91 -88 -239 -88q-128 0 -226.5 68t-123.5 207q-14 87 4 247q22 172 63 260q55 124 162 199.5t238 75.5q152 0 231 -92
q10 -13 14 6zM733 348q24 57 37 182q15 117 6 179q-6 67 -51 108t-119 41q-73 0 -127.5 -41t-83.5 -108q-30 -58 -47 -181q-14 -130 -2 -178q13 -66 59.5 -107.5t120.5 -41.5q78 0 131 40.5t76 106.5z" />
    <glyph glyph-name="Gdotaccent" unicode="&#x120;" horiz-adv-x="1204" 
d="M762 1575q-51 0 -78.5 33t-21.5 86q6 52 42 84t87 32t77.5 -31.5t20.5 -84.5t-41 -86t-86 -33zM567 -16q-224 0 -344 133.5t-94 351.5l61 496q26 219 179.5 352t378.5 133q221 0 342.5 -128.5t97.5 -324.5l-2 -8q-1 -15 -11 -24t-24 -9h-166q-13 0 -22 5.5t-7 13.5l2 16
q14 111 -50 182.5t-185 71.5t-203.5 -74.5t-97.5 -197.5l-64 -512q-15 -122 53.5 -197.5t192.5 -75.5q118 0 195 64.5t90 177.5l16 125q0 12 -10 12h-236q-15 0 -22 9t-4 24l16 135q3 33 35 33h442q32 0 29 -33l-31 -254q-29 -236 -179 -366.5t-378 -130.5z" />
    <glyph glyph-name="gdotaccent" unicode="&#x121;" horiz-adv-x="1091" 
d="M672 1190q-51 0 -79 33t-22 86q6 52 42.5 84t88.5 32q50 0 77.5 -32t21.5 -84q-6 -53 -42 -86t-87 -33zM829 1014q1 15 11.5 24t25.5 9h166q32 0 29 -33l-117 -944q-11 -87 -38 -159t-66.5 -122.5t-90 -89t-108 -59.5t-122 -34t-130.5 -12.5t-133 5.5q-26 3 -23 36
l25 152q1 15 12.5 23t26.5 6q197 -18 297 40t121 220l2 12q0 18 -15 6q-91 -88 -239 -88q-128 0 -226.5 68t-123.5 207q-14 87 4 247q22 172 63 260q55 124 162 199.5t238 75.5q152 0 231 -92q10 -13 14 6zM733 348q24 57 37 182q15 117 6 179q-6 67 -51 108t-119 41
q-73 0 -127.5 -41t-83.5 -108q-30 -58 -47 -181q-14 -130 -2 -178q13 -66 59.5 -107.5t120.5 -41.5q78 0 131 40.5t76 106.5z" />
    <glyph glyph-name="uni0122" unicode="&#x122;" horiz-adv-x="1204" 
d="M567 -16q-224 0 -344 133.5t-94 351.5l61 496q26 219 179.5 352t378.5 133q221 0 342.5 -128.5t97.5 -324.5l-2 -8q-1 -15 -11 -24t-24 -9h-166q-13 0 -22 5.5t-7 13.5l2 16q14 111 -50 182.5t-185 71.5t-203.5 -74.5t-97.5 -197.5l-64 -512q-15 -122 53.5 -197.5
t192.5 -75.5q118 0 195 64.5t90 177.5l16 125q0 12 -10 12h-236q-15 0 -22 9t-4 24l16 135q3 33 35 33h442q32 0 29 -33l-31 -254q-29 -236 -179 -366.5t-378 -130.5zM367 -385q-19 0 -25 11t4 28l127 194q16 23 41 23h158q19 0 22.5 -11t-8.5 -28l-151 -197
q-13 -20 -39 -20h-129z" />
    <glyph glyph-name="uni0123" unicode="&#x123;" horiz-adv-x="1091" 
d="M858 1434q18 0 23.5 -11t-4.5 -28l-127 -195q-16 -22 -41 -22h-158q-19 0 -22.5 11t8.5 28l151 196q16 21 41 21h129zM829 1014q1 15 11.5 24t25.5 9h166q32 0 29 -33l-117 -944q-11 -87 -38 -159t-66.5 -122.5t-90 -89t-108 -59.5t-122 -34t-130.5 -12.5t-133 5.5
q-26 3 -23 36l25 152q1 15 12.5 23t26.5 6q197 -18 297 40t121 220l2 12q0 18 -15 6q-91 -88 -239 -88q-128 0 -226.5 68t-123.5 207q-14 87 4 247q22 172 63 260q55 124 162 199.5t238 75.5q152 0 231 -92q10 -13 14 6zM733 348q24 57 37 182q15 117 6 179q-6 67 -51 108
t-119 41q-73 0 -127.5 -41t-83.5 -108q-30 -58 -47 -181q-14 -130 -2 -178q13 -66 59.5 -107.5t120.5 -41.5q78 0 131 40.5t76 106.5z" />
    <glyph glyph-name="Hbar" unicode="&#x126;" horiz-adv-x="1265" 
d="M1325 1200q32 0 29 -33l-13 -96q-2 -15 -11.5 -24t-24.5 -9h-72q-11 0 -14 -12l-123 -993q-3 -33 -35 -33h-166q-32 0 -29 33l70 575q2 5 -1 9t-9 4h-502q-11 0 -14 -13l-70 -575q-1 -15 -11.5 -24t-25.5 -9h-166q-31 0 -28 33l122 993q0 12 -10 12h-74q-31 0 -28 33
l12 96q1 15 11.5 24t25.5 9h74q12 0 12 12l22 189q7 33 37 33h166q32 0 29 -33l-23 -189q-3 -12 11 -12h501q12 0 15 12l22 189q1 15 11 24t24 9h168q15 0 22.5 -9t4.5 -24l-23 -189q0 -12 10 -12h74zM952 825q13 0 13 13l22 188q3 12 -10 12h-502q-11 0 -14 -12l-23 -188
q0 -13 11 -13h503z" />
    <glyph glyph-name="hbar" unicode="&#x127;" horiz-adv-x="1081" 
d="M700 1063q162 0 247 -99t65 -268l-82 -663q-1 -15 -11 -24t-24 -9h-168q-32 0 -29 33l76 614q12 94 -33 152.5t-131 58.5q-85 0 -145 -57.5t-72 -151.5l-76 -616q-1 -15 -10.5 -24t-23.5 -9h-168q-14 0 -22 9t-5 24l133 1085q0 12 -10 12h-88q-32 0 -29 33l10 82
q7 33 37 33h88q4 0 8.5 3.5t4.5 8.5l14 111q1 15 11 24t24 9h168q29 0 26 -33l-12 -111q-3 -12 10 -12h273q29 0 26 -33l-10 -82q-1 -15 -11 -24t-24 -9h-272q-11 0 -14 -12l-19 -160q-2 -8 2 -10t10 4q92 111 256 111z" />
    <glyph glyph-name="Imacron" unicode="&#x12a;" horiz-adv-x="520" 
d="M168 1606q-32 0 -29 32l13 99q3 32 36 32h502q32 0 29 -32l-12 -99q-6 -32 -37 -32h-502zM137 0q-31 0 -28 33l167 1368q7 33 37 33h166q32 0 29 -33l-168 -1368q-1 -15 -11.5 -24t-25.5 -9h-166z" />
    <glyph glyph-name="imacron" unicode="&#x12b;" horiz-adv-x="464" 
d="M84 1217q-32 0 -29 32l13 99q3 32 36 32h502q32 0 29 -32l-12 -99q-1 -15 -11.5 -23.5t-25.5 -8.5h-502zM106 0q-29 0 -26 33l121 981q3 33 35 33h167q14 0 21 -9t6 -24l-121 -981q-3 -33 -35 -33h-168z" />
    <glyph glyph-name="Iogonek" unicode="&#x12e;" horiz-adv-x="606" 
d="M340 -248q32 6 35 -24l2 -64q-3 -31 -29 -39q-38 -11 -78.5 -13.5t-82.5 6t-71.5 39t-35.5 81.5q-9 62 24 125.5t109 122.5q12 9 6 13q-2 1 -4 1h-20q-15 0 -22.5 9t-4.5 24l168 1368q3 33 35 33h166q31 0 28 -33l-168 -1376q-3 -25 -26 -39q-139 -100 -133 -183
q4 -35 33 -48t69 -3z" />
    <glyph glyph-name="iogonek" unicode="&#x12f;" horiz-adv-x="526" 
d="M383 1194q-51 0 -78.5 33t-21.5 86q6 52 42 84.5t87 32.5t78 -32.5t20 -84.5q-6 -53 -41 -86t-86 -33zM299 -248q32 6 35 -24l2 -64q0 -30 -27 -39q-38 -11 -79 -13.5t-82.5 6t-71.5 39t-37 81.5q-16 132 135 248q12 9 6 13q-2 1 -4 1h-16q-32 0 -29 33l121 981
q1 15 11 24t24 9h168q15 0 22 -9t4 -24l-119 -981l-6 -33h-2q-76 -50 -117.5 -101t-37.5 -96q4 -35 32 -47.5t68 -3.5z" />
    <glyph glyph-name="Idotaccent" unicode="&#x130;" horiz-adv-x="520" 
d="M416 1583q-51 0 -80 33.5t-23 85.5q7 52 43.5 84.5t87.5 32.5t78 -32t21 -85t-41 -86t-86 -33zM137 0q-31 0 -28 33l167 1368q7 33 37 33h166q32 0 29 -33l-168 -1368q-1 -15 -11.5 -24t-25.5 -9h-166z" />
    <glyph glyph-name="dotlessi" unicode="&#x131;" horiz-adv-x="464" 
d="M106 0q-29 0 -26 33l121 981q3 33 35 33h167q14 0 21 -9t6 -24l-121 -981q-3 -33 -35 -33h-168z" />
    <glyph glyph-name="ij" unicode="&#x133;" horiz-adv-x="970" 
d="M358 1178q-65 0 -101.5 41.5t-27.5 107.5q8 65 54 106.5t112 41.5q65 0 101 -41.5t28 -106.5q-7 -66 -53.5 -107.5t-112.5 -41.5zM838 1171q-65 0 -101 43t-28 107q7 62 56 104.5t109 42.5q61 0 100 -42.5t32 -104.5q-8 -64 -55.5 -107t-112.5 -43zM131 0q-32 0 -29 33
l121 981q7 33 37 33h166q32 0 29 -33l-121 -981q-1 -15 -11 -24t-24 -9h-168zM324 -420q-15 0 -22.5 9t-4.5 24l16 135q3 34 37 31q108 0 159.5 44t63.5 142l129 1049q1 15 11.5 24t25.5 9h166q32 0 29 -33l-129 -1047q-26 -217 -131.5 -303.5t-349.5 -83.5z" />
    <glyph glyph-name="uni0136" unicode="&#x136;" horiz-adv-x="1230" 
d="M137 0q-31 0 -28 33l167 1368q7 33 37 33h166q32 0 29 -33l-74 -602q-1 -7 3 -8.5t9 4.5l588 620q16 19 41 19h191q19 0 22.5 -13t-10.5 -28l-516 -564q-8 -8 -2 -16l385 -774q9 -17 1 -28t-28 -11h-190q-25 0 -35 23l-311 622q-2 6 -7.5 7t-11.5 -5l-164 -174
q-7 -10 -8 -14l-51 -426q-1 -15 -11.5 -24t-25.5 -9h-166zM385 -369q-18 0 -23 11t5 28l127 195q16 22 41 22h157q19 0 23 -11t-8 -28l-152 -196q-16 -21 -41 -21h-129z" />
    <glyph glyph-name="uni0137" unicode="&#x137;" horiz-adv-x="1036" 
d="M115 0q-14 0 -22 9t-5 24l168 1368q1 15 11 24t24 9h168q29 0 26 -33l-88 -727q-1 -7 3.5 -9.5t9.5 3.5l360 360q19 19 41 19h193q19 0 24 -13t-10 -28l-281 -299q-8 -5 -4 -17l213 -651q9 -39 -28 -39h-177q-26 0 -32 25l-152 512q-5 13 -16 2l-179 -187q-6 -9 -6 -14
l-39 -305q-1 -15 -10.5 -24t-23.5 -9h-168zM303 -369q-19 0 -24.5 11t4.5 28l127 195q16 22 41 22h157q19 0 23 -11t-8 -28l-152 -196q-13 -21 -39 -21h-129z" />
    <glyph glyph-name="Lacute" unicode="&#x139;" horiz-adv-x="1134" 
d="M330 1565q-19 0 -25 11t4 28l129 194q13 23 39 23h158q41 0 14 -39l-151 -197q-12 -20 -39 -20h-129zM137 0q-31 0 -28 33l167 1368q7 33 37 33h166q32 0 29 -33l-146 -1184q0 -12 11 -12h655q32 0 29 -33l-19 -139q-3 -33 -34 -33h-867z" />
    <glyph glyph-name="lacute" unicode="&#x13a;" horiz-adv-x="483" 
d="M313 1565q-19 0 -24.5 11t6.5 28l127 194q16 23 41 23h155q20 0 24.5 -11t-7.5 -28l-152 -197q-15 -20 -41 -20h-129zM117 0q-14 0 -22 9t-5 24l168 1368q3 33 35 33h168q29 0 26 -33l-168 -1368q-1 -15 -10.5 -24t-23.5 -9h-168z" />
    <glyph glyph-name="uni013B" unicode="&#x13b;" horiz-adv-x="1134" 
d="M137 0q-31 0 -28 33l167 1368q7 33 37 33h166q32 0 29 -33l-146 -1184q0 -12 11 -12h655q32 0 29 -33l-19 -139q-3 -33 -34 -33h-867zM319 -369q-18 0 -23 11t5 28l127 195q16 22 41 22h158q19 0 22.5 -11t-8.5 -28l-152 -196q-16 -21 -40 -21h-130z" />
    <glyph glyph-name="uni013C" unicode="&#x13c;" horiz-adv-x="485" 
d="M117 0q-14 0 -22 9t-5 24l168 1368q3 33 35 33h168q29 0 26 -33l-168 -1368q-1 -15 -10.5 -24t-23.5 -9h-168zM-45 -369q-19 0 -24.5 11t6.5 28l126 195q13 22 39 22h158q20 0 24 -11t-10 -28l-149 -196q-16 -21 -41 -21h-129z" />
    <glyph glyph-name="Lcaron" unicode="&#x13d;" horiz-adv-x="1134" 
d="M311 1536q-24 0 -35 20l-110 201q-8 17 -0.5 28t27.5 11h112q26 0 37 -20l70 -134q3 -4 8 -4t8 4l104 134q14 20 39 20h113q19 0 22.5 -11t-8.5 -28l-159 -201q-17 -20 -41 -20h-187zM137 0q-31 0 -28 33l167 1368q7 33 37 33h166q32 0 29 -33l-146 -1184q0 -12 11 -12
h655q32 0 29 -33l-19 -139q-3 -33 -34 -33h-867z" />
    <glyph glyph-name="lcaron" unicode="&#x13e;" horiz-adv-x="483" 
d="M295 1536q-24 0 -35 20l-110 201q-7 17 0 28t26 11h115q24 0 35 -20l71 -134q1 -4 6.5 -4t8.5 4l104 134q17 20 41 20h111q41 0 14 -39l-160 -201q-14 -20 -39 -20h-188zM117 0q-14 0 -22 9t-5 24l168 1368q3 33 35 33h168q29 0 26 -33l-168 -1368q-1 -15 -10.5 -24
t-23.5 -9h-168z" />
    <glyph glyph-name="Lslash" unicode="&#x141;" horiz-adv-x="1134" 
d="M362 217q0 -12 11 -12h655q32 0 29 -33l-19 -139q-3 -33 -34 -33h-867q-31 0 -28 33l49 401q1 7 -3 9t-10 -3l-174 -131q-29 -22 -45 4l-59 88q-19 25 8 45l307 232q8 8 8 14l86 709q7 33 37 33h166q32 0 29 -33l-62 -506q-1 -7 3 -9t10 3l422 317q30 23 43 -4l63 -90
q16 -26 -12 -45l-553 -418q-8 -8 -8 -14z" />
    <glyph glyph-name="lslash" unicode="&#x142;" horiz-adv-x="483" 
d="M690 856q10 -30 -18 -45l-266 -143q-7 -2 -11 -15l-76 -620q-1 -15 -10.5 -24t-23.5 -9h-168q-14 0 -22 9t-5 24l60 481q0 6 -4.5 9t-10.5 -1l-102 -55q-32 -18 -41 12l-39 96q-10 31 20 46l193 106q10 3 10 14l82 660q3 33 35 33h168q29 0 26 -33l-63 -516q0 -16 14 -8
l168 92q13 8 25 4t16 -17z" />
    <glyph glyph-name="Nacute" unicode="&#x143;" horiz-adv-x="1318" 
d="M721 1589q-18 0 -23.5 11t4.5 28l127 195q16 22 41 22h158q19 0 22.5 -11t-8.5 -28l-151 -196q-16 -21 -41 -21h-129zM137 0q-31 0 -28 33l167 1368q7 33 37 33h158q29 0 39 -23l440 -938q3 -8 8.5 -6.5t6.5 10.5l112 924q7 33 37 33h166q32 0 29 -33l-168 -1368
q-1 -15 -11.5 -24t-25.5 -9h-162q-27 0 -37 23l-440 944q-5 8 -9.5 6.5t-4.5 -10.5l-113 -930q-3 -33 -37 -33h-164z" />
    <glyph glyph-name="nacute" unicode="&#x144;" horiz-adv-x="1081" 
d="M877 1434q20 0 24 -11t-8 -28l-152 -197q-15 -20 -41 -20h-129q-18 0 -23 11t5 28l127 194q16 23 41 23h156zM700 1063q162 0 247 -99t65 -268l-82 -663q-1 -15 -11 -24t-24 -9h-168q-32 0 -29 33l76 614q12 94 -33 152.5t-131 58.5q-85 0 -145 -57.5t-72 -151.5
l-76 -616q-1 -15 -10.5 -24t-23.5 -9h-168q-14 0 -22 9t-5 24l121 981q3 33 35 33h166q31 0 28 -33l-6 -56q-2 -8 2 -10t10 4q92 111 256 111z" />
    <glyph glyph-name="uni0145" unicode="&#x145;" horiz-adv-x="1318" 
d="M137 0q-31 0 -28 33l167 1368q7 33 37 33h158q29 0 39 -23l440 -938q3 -8 8.5 -6.5t6.5 10.5l112 924q7 33 37 33h166q32 0 29 -33l-168 -1368q-1 -15 -11.5 -24t-25.5 -9h-162q-27 0 -37 23l-440 944q-5 8 -9.5 6.5t-4.5 -10.5l-113 -930q-3 -33 -37 -33h-164zM451 -369
q-18 0 -23.5 11t4.5 28l127 195q16 22 41 22h158q19 0 22.5 -11t-8.5 -28l-151 -196q-16 -21 -41 -21h-129z" />
    <glyph glyph-name="uni0146" unicode="&#x146;" horiz-adv-x="1081" 
d="M700 1063q162 0 247 -99t65 -268l-82 -663q-1 -15 -11 -24t-24 -9h-168q-32 0 -29 33l76 614q12 94 -33 152.5t-131 58.5q-85 0 -145 -57.5t-72 -151.5l-76 -616q-1 -15 -10.5 -24t-23.5 -9h-168q-14 0 -22 9t-5 24l121 981q3 33 35 33h166q31 0 28 -33l-6 -56
q-2 -8 2 -10t10 4q92 111 256 111zM313 -369q-18 0 -23 11t5 28l127 195q16 22 41 22h158q19 0 22.5 -11t-8.5 -28l-152 -196q-16 -21 -39 -21h-131z" />
    <glyph glyph-name="Ncaron" unicode="&#x147;" horiz-adv-x="1318" 
d="M705 1569q-24 0 -35 20l-111 201q-7 17 0.5 28t26.5 11h112q25 0 37 -21l72 -131q1 -5 6 -5t8 5l105 131q18 21 39 21h112q19 0 23 -11t-8 -28l-160 -201q-17 -20 -41 -20h-186zM137 0q-31 0 -28 33l167 1368q7 33 37 33h158q29 0 39 -23l440 -938q3 -8 8.5 -6.5
t6.5 10.5l112 924q7 33 37 33h166q32 0 29 -33l-168 -1368q-1 -15 -11.5 -24t-25.5 -9h-162q-27 0 -37 23l-440 944q-5 8 -9.5 6.5t-4.5 -10.5l-113 -930q-3 -33 -37 -33h-164z" />
    <glyph glyph-name="ncaron" unicode="&#x148;" horiz-adv-x="1081" 
d="M782 1178q-18 -21 -41 -21h-186q-23 0 -35 21l-110 200q-8 17 -1 28t27 11h113q26 0 35 -20l71 -131q3 -4 8.5 -4t8.5 4l104 131q14 20 39 20h113q19 0 22.5 -11t-8.5 -28zM700 1063q162 0 247 -99t65 -268l-82 -663q-1 -15 -11 -24t-24 -9h-168q-32 0 -29 33l76 614
q12 94 -33 152.5t-131 58.5q-85 0 -145 -57.5t-72 -151.5l-76 -616q-1 -15 -10.5 -24t-23.5 -9h-168q-14 0 -22 9t-5 24l121 981q3 33 35 33h166q31 0 28 -33l-6 -56q-2 -8 2 -10t10 4q92 111 256 111z" />
    <glyph glyph-name="Eng" unicode="&#x14a;" horiz-adv-x="1329" 
d="M1274 1120q0 -8 2 -14q3 -9 0 -27l-127 -1046q-14 -112 -42 -184t-82 -120t-135 -67.5t-204 -17.5q-32 0 -29 32l17 136q3 30 37 30q96 0 141.5 36t60.5 118q0 10 -2 14l-446 957q-5 8 -9.5 6.5t-4.5 -10.5l-113 -930q-3 -33 -37 -33h-164q-31 0 -28 33l167 1368
q7 33 37 33h158q29 0 39 -23l440 -938q3 -8 8.5 -6.5t6.5 10.5l112 924q7 33 37 33h166q32 0 29 -33z" />
    <glyph glyph-name="eng" unicode="&#x14b;" horiz-adv-x="1083" 
d="M981 444q-4 -12 2 -12h2l-51 -420q-13 -104 -38 -172t-74 -118.5t-127 -73.5t-195 -25q-36 0 -29 33l14 127q1 15 11.5 24t25.5 11q82 6 123 46.5t55 123.5q0 12 -2 12h-2l78 647q12 94 -33 152.5t-131 58.5q-85 0 -145 -57.5t-72 -151.5l-76 -616q-1 -15 -10.5 -24
t-23.5 -9h-168q-14 0 -22 9t-5 24l121 981q3 33 35 33h166q31 0 28 -33l-6 -56q-2 -8 3 -9.5t9 5.5q97 109 256 109q162 0 247 -99t65 -268z" />
    <glyph glyph-name="Omacron" unicode="&#x14c;" horiz-adv-x="1232" 
d="M522 1597q-31 0 -28 33l12 99q1 15 11.5 23.5t25.5 8.5h501q32 0 29 -32l-12 -99q-1 -15 -11.5 -24t-25.5 -9h-502zM573 -20q-226 0 -348 138t-94 365l57 467q28 224 184 362t382 138q229 0 351.5 -138t94.5 -362l-57 -467q-29 -227 -186 -365t-384 -138zM598 184
q126 0 211 79.5t102 211.5l58 477q17 132 -49 212.5t-191 80.5q-124 0 -209 -80.5t-100 -212.5l-60 -477q-17 -131 48.5 -211t189.5 -80z" />
    <glyph glyph-name="omacron" unicode="&#x14d;" horiz-adv-x="1105" 
d="M412 1210q-32 0 -29 33l12 98q1 15 11 24t24 9h504q15 0 22.5 -9t4.5 -24l-11 -98q-7 -33 -37 -33h-501zM514 -16q-157 0 -260 82t-129 227q-21 97 -4 233q16 133 59 234q63 143 186.5 223t282.5 80q152 0 252 -79.5t129 -221.5q22 -103 6 -234q-16 -127 -61 -233
q-63 -146 -185 -228.5t-276 -82.5zM539 188q73 0 131.5 43.5t89.5 120.5q33 67 43 172q12 101 2 172q-14 77 -63 119.5t-124 42.5q-76 0 -134 -42.5t-91 -119.5q-30 -82 -41 -172q-12 -98 -2 -172q14 -77 63.5 -120.5t125.5 -43.5z" />
    <glyph glyph-name="Ohungarumlaut" unicode="&#x150;" horiz-adv-x="1232" 
d="M537 1577q-17 0 -22.5 11t3.5 28l115 192q16 25 41 25h143q19 0 24 -11t-5 -28l-125 -195q-16 -22 -41 -22h-133zM883 1577q-19 0 -24 11t5 28l125 194q16 23 41 23h131q18 0 23.5 -11t-4.5 -28l-127 -195q-16 -22 -41 -22h-129zM573 -20q-226 0 -348 138t-94 365l57 467
q28 224 184 362t382 138q229 0 351.5 -138t94.5 -362l-57 -467q-29 -227 -186 -365t-384 -138zM598 184q126 0 211 79.5t102 211.5l58 477q17 132 -49 212.5t-191 80.5q-124 0 -209 -80.5t-100 -212.5l-60 -477q-17 -131 48.5 -211t189.5 -80z" />
    <glyph glyph-name="ohungarumlaut" unicode="&#x151;" horiz-adv-x="1105" 
d="M426 1190q-38 0 -18 39l114 192q16 25 41 25h144q18 0 23 -11t-5 -28l-125 -195q-16 -22 -41 -22h-133zM772 1190q-19 0 -24.5 11t6.5 28l125 194q13 23 39 23h133q18 0 23 -11t-5 -28l-127 -195q-16 -22 -41 -22h-129zM514 -16q-157 0 -260 82t-129 227q-21 97 -4 233
q16 133 59 234q63 143 186.5 223t282.5 80q152 0 252 -79.5t129 -221.5q22 -103 6 -234q-16 -127 -61 -233q-63 -146 -185 -228.5t-276 -82.5zM539 188q73 0 131.5 43.5t89.5 120.5q33 67 43 172q12 101 2 172q-14 77 -63 119.5t-124 42.5q-76 0 -134 -42.5t-91 -119.5
q-30 -82 -41 -172q-12 -98 -2 -172q14 -77 63.5 -120.5t125.5 -43.5z" />
    <glyph glyph-name="OE" unicode="&#x152;" horiz-adv-x="1841" 
d="M1868 1262q-1 -15 -11.5 -24t-25.5 -9h-619q-11 0 -14 -12l-47 -379q0 -13 10 -13h398q31 0 28 -32l-16 -140q-6 -32 -37 -32h-397q-13 0 -13 -13l-49 -391q0 -12 10 -12h621q15 0 22.5 -9t4.5 -24l-17 -139q-1 -15 -11 -24t-24 -9h-831q-15 0 -22.5 9t-4.5 24l4 47
q1 7 -2.5 9t-9.5 -3q-143 -106 -315 -106q-184 0 -290.5 136t-80.5 349l61 502q26 211 166 347t324 136q171 0 291 -104q11 -11 14 6l6 49q3 33 35 33h832q29 0 26 -33zM582 184q116 0 197 77t95 198l64 512q14 121 -48 197.5t-179 76.5q-114 0 -194.5 -77t-94.5 -197
l-64 -512q-15 -121 47 -198t177 -77z" />
    <glyph glyph-name="oe" unicode="&#x153;" horiz-adv-x="1722" 
d="M1221 182q55 0 113 30t96 79q25 28 45 8l90 -82q20 -17 2 -45q-72 -90 -174 -139t-226 -49q-208 0 -317 155q-3 5 -8 5t-8 -5q-70 -72 -158.5 -113.5t-183.5 -41.5q-148 0 -247 80.5t-126 216.5q-17 92 2 245q19 164 57 244q59 135 178 214t267 79q96 0 174.5 -41
t130.5 -113q3 -5 8 -5t8 5q68 71 156 112.5t182 41.5q151 0 253 -82t126 -213q16 -75 -6 -291q-6 -35 -37 -35h-602q-12 0 -12 -12q-3 -60 2 -86q11 -77 65.5 -119.5t149.5 -42.5zM723 344q24 53 41 182q16 134 4 179q-8 70 -53.5 111.5t-116.5 41.5q-70 0 -125 -42
t-82 -111q-24 -53 -41 -179q-13 -107 -2 -182q8 -71 52.5 -113.5t115.5 -42.5q70 0 126 43t81 113zM1260 858q-73 0 -128.5 -42.5t-80.5 -113.5q-17 -40 -25 -84q-3 -12 10 -12h389q13 0 13 12q3 58 -2 84q-8 70 -55 113t-121 43z" />
    <glyph glyph-name="Racute" unicode="&#x154;" horiz-adv-x="1218" 
d="M954 1821q20 0 24.5 -11t-9.5 -28l-150 -197q-15 -20 -41 -20h-129q-19 0 -24.5 11t6.5 28l127 194q13 23 39 23h157zM893 0q-29 0 -35 25l-188 585q-3 8 -15 8h-231q-11 0 -14 -12l-70 -573q-1 -15 -11.5 -24t-25.5 -9h-166q-31 0 -28 33l170 1370q3 33 34 33h539
q185 0 284 -115.5t76 -302.5q-19 -141 -101.5 -240.5t-209.5 -136.5q-12 -3 -8 -16l203 -586q5 -18 -3 -28.5t-26 -10.5h-174zM500 1231q-15 0 -15 -12l-49 -404q-3 -12 10 -12h295q95 0 161.5 58.5t78.5 152.5q12 97 -39.5 157t-146.5 60h-295z" />
    <glyph glyph-name="racute" unicode="&#x155;" horiz-adv-x="747" 
d="M758 1444q19 0 22.5 -11t-8.5 -28l-151 -197q-15 -20 -39 -20h-129q-19 0 -25 11t4 28l127 194q16 23 41 23h158zM686 1059q58 0 102 -23q22 -13 13 -41l-51 -170q-10 -29 -41 -20q-45 14 -101 6q-85 -5 -147 -60.5t-74 -146.5l-70 -571q-1 -15 -10.5 -24t-23.5 -9h-168
q-14 0 -22 9t-5 24l121 981q3 33 35 33h166q31 0 28 -33l-10 -80q0 -19 12 -4q95 129 246 129z" />
    <glyph glyph-name="uni0156" unicode="&#x156;" horiz-adv-x="1218" 
d="M901 641q-12 -3 -8 -16l203 -586q5 -18 -3 -28.5t-26 -10.5h-174q-29 0 -35 25l-188 585q-3 8 -15 8h-231q-11 0 -14 -12l-70 -573q-1 -15 -11.5 -24t-25.5 -9h-166q-31 0 -28 33l170 1370q3 33 34 33h539q185 0 284 -115.5t76 -302.5q-19 -141 -101.5 -240.5
t-209.5 -136.5zM500 1231q-15 0 -15 -12l-49 -404q-3 -12 10 -12h295q95 0 161.5 58.5t78.5 152.5q12 97 -39.5 157t-146.5 60h-295zM367 -369q-19 0 -25 11t4 28l127 195q16 22 41 22h158q41 0 14 -39l-151 -196q-13 -21 -39 -21h-129z" />
    <glyph glyph-name="uni0157" unicode="&#x157;" horiz-adv-x="755" 
d="M686 1059q58 0 102 -23q22 -13 13 -41l-51 -170q-10 -29 -41 -20q-45 14 -101 6q-85 -5 -147 -60.5t-74 -146.5l-70 -571q-1 -15 -10.5 -24t-23.5 -9h-168q-14 0 -22 9t-5 24l121 981q3 33 35 33h166q31 0 28 -33l-10 -80q0 -19 12 -4q95 129 246 129zM-55 -369
q-19 0 -24 11t5 28l127 195q16 22 41 22h156q20 0 24 -11t-8 -28l-151 -196q-16 -21 -41 -21h-129z" />
    <glyph glyph-name="Rcaron" unicode="&#x158;" horiz-adv-x="1218" 
d="M860 1565q-18 -21 -41 -21h-186q-23 0 -35 21l-111 200q-9 17 -1 28t28 11h113q24 0 35 -20l71 -131q3 -5 8.5 -5t8.5 5l102 131q17 20 41 20h111q20 0 24 -11t-8 -28zM893 0q-29 0 -35 25l-188 585q-3 8 -15 8h-231q-11 0 -14 -12l-70 -573q-1 -15 -11.5 -24t-25.5 -9
h-166q-31 0 -28 33l170 1370q3 33 34 33h539q185 0 284 -115.5t76 -302.5q-19 -141 -101.5 -240.5t-209.5 -136.5q-12 -3 -8 -16l203 -586q5 -18 -3 -28.5t-26 -10.5h-174zM500 1231q-15 0 -15 -12l-49 -404q-3 -12 10 -12h295q95 0 161.5 58.5t78.5 152.5q12 97 -39.5 157
t-146.5 60h-295z" />
    <glyph glyph-name="rcaron" unicode="&#x159;" horiz-adv-x="747" 
d="M662 1188q-15 -21 -39 -21h-187q-25 0 -37 21l-110 201q-7 17 0 27.5t26 10.5h115q24 0 35 -20l72 -131q1 -4 6 -4t10 4l102 131q17 20 41 20h111q20 0 24 -10.5t-10 -27.5zM686 1059q58 0 102 -23q22 -13 13 -41l-51 -170q-10 -29 -41 -20q-45 14 -101 6
q-85 -5 -147 -60.5t-74 -146.5l-70 -571q-1 -15 -10.5 -24t-23.5 -9h-168q-14 0 -22 9t-5 24l121 981q3 33 35 33h166q31 0 28 -33l-10 -80q0 -19 12 -4q95 129 246 129z" />
    <glyph glyph-name="Sacute" unicode="&#x15a;" horiz-adv-x="1171" 
d="M651 1581q-19 0 -24.5 11t6.5 28l127 195q13 22 39 22h157q20 0 24.5 -11t-9.5 -28l-150 -196q-16 -21 -41 -21h-129zM551 -16q-230 0 -353 111.5t-100 299.5l6 43q3 33 35 33h164q30 0 27 -31l-4 -32q-11 -94 61.5 -157t206.5 -63q121 0 188.5 53.5t77.5 137.5
q5 35 -5 64t-28.5 50.5t-60.5 46.5t-81.5 43t-111.5 48q-78 31 -123.5 52t-106.5 59.5t-91 79t-48.5 102.5t-8.5 137q22 181 161.5 285t352.5 104q226 0 350.5 -116.5t101.5 -305.5l-4 -27q-3 -32 -35 -32h-164q-14 0 -21.5 7t-6.5 17l4 23q11 97 -57.5 163t-202.5 66
q-110 0 -177 -47t-77 -133q-3 -27 1 -49t12 -40t28.5 -35.5t40 -31t57 -31t69 -30.5t85.5 -35q161 -66 227 -110q157 -103 155 -270q0 -23 -3 -48q-22 -182 -168 -291.5t-373 -109.5z" />
    <glyph glyph-name="sacute" unicode="&#x15b;" horiz-adv-x="980" 
d="M516 1190q-19 0 -24.5 11t4.5 28l129 194q13 23 39 23h157q20 0 23.5 -11t-8.5 -28l-152 -197q-12 -20 -39 -20h-129zM461 -12q-188 0 -292 82t-89 209l2 10q3 33 35 33h159q13 0 22 -4.5t7 -10.5v-14q-8 -52 42 -89.5t134 -37.5q79 0 133 34t60 85q3 21 -5 38t-21 28
t-38.5 22t-47 18t-58 18.5t-60.5 20.5q-39 12 -66.5 22t-63.5 26.5t-60 33t-48.5 40.5t-38 51t-19.5 63.5t-1 78.5q19 145 137.5 229.5t297.5 84.5q182 0 282.5 -87t83.5 -224q-4 -25 -35 -25h-153q-31 0 -31 12l2 13q6 53 -40 88.5t-134 35.5q-78 0 -129.5 -29t-58.5 -83
q-2 -14 0.5 -25.5t10 -22t15 -18.5t23.5 -16t26.5 -13.5t33.5 -13t36 -11.5t40.5 -12t41.5 -12q42 -13 69.5 -22.5t65.5 -26t63 -32.5t51 -40.5t40 -51.5t20.5 -64t1.5 -80q-19 -146 -139 -228.5t-307 -82.5z" />
    <glyph glyph-name="Scedilla" unicode="&#x15e;" horiz-adv-x="1171" 
d="M1092 385q-19 -159 -136.5 -264.5t-304.5 -130.5q-8 -2 -10 -6t4 -9q94 -109 51 -227q-19 -51 -56.5 -81.5t-81.5 -39t-84 -6t-77 13.5q-23 9 -16 39l18 64q9 30 39 24q39 -9 71 4t44 48q26 75 -74 168q-6 6 -14 6q-190 22 -289.5 130.5t-77.5 276.5l6 43q3 33 35 33h164
q30 0 27 -31l-4 -32q-11 -94 61.5 -157t206.5 -63q121 0 188.5 53.5t77.5 137.5q5 35 -5 64t-28.5 50.5t-60.5 46.5t-81.5 43t-111.5 48q-78 31 -123.5 52t-106.5 59.5t-91 79t-48.5 102.5t-8.5 137q22 181 161.5 285t352.5 104q226 0 350.5 -116.5t101.5 -305.5l-4 -27
q-3 -32 -35 -32h-164q-14 0 -21.5 7t-6.5 17l4 23q11 97 -57.5 163t-202.5 66q-110 0 -177 -47t-77 -133q-3 -27 1 -49t12 -40t28.5 -35.5t40 -31t57 -31t69 -30.5t85.5 -35q161 -66 227 -110q157 -103 155 -270q0 -23 -3 -48z" />
    <glyph glyph-name="scedilla" unicode="&#x15f;" horiz-adv-x="980" 
d="M907 299q-15 -123 -106.5 -203t-235.5 -102q-17 -3 -6 -14q99 -111 53 -228q-19 -51 -56.5 -81.5t-81 -38.5t-83.5 -5.5t-76 13.5q-23 8 -16 38l16 64q9 31 41 25q39 -9 70.5 3.5t44.5 47.5q23 76 -76 168q-6 6 -12 6q-152 17 -234.5 96.5t-68.5 190.5l2 10q3 33 35 33
h159q13 0 22 -4.5t7 -10.5v-14q-8 -52 42 -89.5t134 -37.5q79 0 133 34t60 85q3 21 -5 38t-21 28t-38.5 22t-47 18t-58 18.5t-60.5 20.5q-39 12 -66.5 22t-63.5 26.5t-60 33t-48.5 40.5t-38 51t-19.5 63.5t-1 78.5q19 145 137.5 229.5t297.5 84.5q182 0 282.5 -87t83.5 -224
q-4 -25 -35 -25h-153q-31 0 -31 12l2 13q6 53 -40 88.5t-134 35.5q-78 0 -129.5 -29t-58.5 -83q-2 -14 0.5 -25.5t10 -22t15 -18.5t23.5 -16t26.5 -13.5t33.5 -13t36 -11.5t40.5 -12t41.5 -12q42 -13 69.5 -22.5t65.5 -26t63 -32.5t51 -40.5t40 -51.5t20.5 -64t1.5 -80z" />
    <glyph glyph-name="Scaron" unicode="&#x160;" horiz-adv-x="1171" 
d="M635 1561q-24 0 -35 20l-111 201q-9 17 -1 28t28 11h113q23 0 35 -21l71 -131q3 -5 8.5 -5t8.5 5l102 131q18 21 41 21h111q20 0 24 -11t-8 -28l-160 -201q-17 -20 -41 -20h-186zM551 -16q-230 0 -353 111.5t-100 299.5l6 43q3 33 35 33h164q30 0 27 -31l-4 -32
q-11 -94 61.5 -157t206.5 -63q121 0 188.5 53.5t77.5 137.5q5 35 -5 64t-28.5 50.5t-60.5 46.5t-81.5 43t-111.5 48q-78 31 -123.5 52t-106.5 59.5t-91 79t-48.5 102.5t-8.5 137q22 181 161.5 285t352.5 104q226 0 350.5 -116.5t101.5 -305.5l-4 -27q-3 -32 -35 -32h-164
q-14 0 -21.5 7t-6.5 17l4 23q11 97 -57.5 163t-202.5 66q-110 0 -177 -47t-77 -133q-3 -27 1 -49t12 -40t28.5 -35.5t40 -31t57 -31t69 -30.5t85.5 -35q161 -66 227 -110q157 -103 155 -270q0 -23 -3 -48q-22 -182 -168 -291.5t-373 -109.5z" />
    <glyph glyph-name="scaron" unicode="&#x161;" horiz-adv-x="980" 
d="M500 1169q-23 0 -35 21l-111 201q-9 17 -1 28t28 11h113q22 0 34 -21l72 -131q2 -4 7 -4t9 4l103 131q18 21 41 21h110q20 0 24.5 -11t-7.5 -28l-160 -201q-18 -21 -41 -21h-186zM461 -12q-188 0 -292 82t-89 209l2 10q3 33 35 33h159q13 0 22 -4.5t7 -10.5v-14
q-8 -52 42 -89.5t134 -37.5q79 0 133 34t60 85q3 21 -5 38t-21 28t-38.5 22t-47 18t-58 18.5t-60.5 20.5q-39 12 -66.5 22t-63.5 26.5t-60 33t-48.5 40.5t-38 51t-19.5 63.5t-1 78.5q19 145 137.5 229.5t297.5 84.5q182 0 282.5 -87t83.5 -224q-4 -25 -35 -25h-153
q-31 0 -31 12l2 13q6 53 -40 88.5t-134 35.5q-78 0 -129.5 -29t-58.5 -83q-2 -14 0.5 -25.5t10 -22t15 -18.5t23.5 -16t26.5 -13.5t33.5 -13t36 -11.5t40.5 -12t41.5 -12q42 -13 69.5 -22.5t65.5 -26t63 -32.5t51 -40.5t40 -51.5t20.5 -64t1.5 -80q-19 -146 -139 -228.5
t-307 -82.5z" />
    <glyph glyph-name="uni0162" unicode="&#x162;" horiz-adv-x="1150" 
d="M807 1227q-11 0 -14 -13l-146 -1181q-3 -33 -14 -33q-2 0 -2.5 -2t0.5 -5.5t4 -6.5q92 -109 47 -222q-19 -51 -56.5 -81.5t-81 -38.5t-83.5 -5.5t-76 13.5q-25 8 -18 39l18 63q9 31 41 25q38 -10 70 3t43 48q26 75 -70 164q-6 6 -14 6h-11q-14 0 -21.5 9t-4.5 24
l145 1181q0 13 -12 13h-340q-32 0 -29 33l19 141q3 33 35 33h952q29 0 26 -33l-16 -141q-1 -15 -11.5 -24t-25.5 -9h-354z" />
    <glyph glyph-name="uni0163" unicode="&#x163;" horiz-adv-x="743" 
d="M610 39q-3 -32 -35 -35q-17 0 -49 -1t-47 -1q-76 0 -128 11.5t-91.5 40t-54.5 82t-6 132.5l69 574q0 12 -10 12h-104q-14 0 -21 9t-6 24l16 127q3 33 35 33h103q11 0 14 12l29 229q1 15 10.5 24t23.5 9h158q15 0 22.5 -9t4.5 -24l-27 -229q-2 -5 1 -8.5t9 -3.5h193
q15 0 22 -9t4 -24l-14 -127q-1 -15 -11.5 -24t-25.5 -9h-192q-13 0 -13 -12l-59 -484q-10 -79 19 -114t100 -35h51q15 0 22.5 -9t4.5 -24zM467 -78q22 0 39 -14q121 -118 72 -248q-19 -51 -56.5 -81.5t-81 -39t-83.5 -6t-76 13.5q-26 9 -19 39l19 64q9 30 41 24
q39 -9 69.5 4t42.5 48q24 68 -61 157q-15 15 -10.5 27t26.5 12h78z" />
    <glyph glyph-name="Tcaron" unicode="&#x164;" horiz-adv-x="1150" 
d="M852 1556q-14 -20 -39 -20h-188q-24 0 -35 20l-111 201q-7 17 0.5 28t26.5 11h115q23 0 34 -20l72 -134q1 -4 6 -4t8 4l105 134q17 20 41 20h110q20 0 23.5 -11t-8.5 -28zM1188 1434q29 0 26 -33l-16 -141q-1 -15 -11.5 -24t-25.5 -9h-354q-11 0 -14 -13l-146 -1181
q-1 -15 -11 -24t-24 -9h-168q-14 0 -21.5 9t-4.5 24l145 1181q0 13 -12 13h-340q-32 0 -29 33l19 141q3 33 35 33h952z" />
    <glyph glyph-name="tcaron" unicode="&#x165;" horiz-adv-x="743" 
d="M588 1444q-15 -21 -39 -21h-187q-24 0 -36 21l-111 201q-7 17 0.5 27.5t26.5 10.5h114q24 0 35 -20l72 -133q1 -4 6 -4t8 4l105 133q17 20 41 20h110q41 0 15 -38zM731 887q-1 -15 -11.5 -24t-25.5 -9h-192q-13 0 -13 -12l-59 -484q-10 -79 19 -114t100 -35h51
q15 0 22.5 -9t4.5 -24l-17 -137q-3 -32 -35 -35q-17 0 -49 -1t-47 -1q-76 0 -128 11.5t-91.5 40t-54.5 82t-6 132.5l69 574q0 12 -10 12h-104q-14 0 -21 9t-6 24l16 127q3 33 35 33h103q11 0 14 12l29 229q1 15 10.5 24t23.5 9h158q15 0 22.5 -9t4.5 -24l-27 -229
q-2 -5 1 -8.5t9 -3.5h193q15 0 22 -9t4 -24z" />
    <glyph glyph-name="Tbar" unicode="&#x166;" horiz-adv-x="1191" 
d="M1198 1260q-1 -15 -11.5 -24t-25.5 -9h-354q-11 0 -14 -13l-43 -356q-3 -12 10 -12h188q32 0 29 -33l-10 -82q-7 -33 -37 -33h-189q-11 0 -14 -12l-80 -653q-1 -15 -11 -24t-24 -9h-168q-14 0 -21.5 9t-4.5 24l80 653q0 12 -11 12h-172q-29 0 -26 33l10 82q1 15 11 24
t24 9h172q12 0 12 12l45 356q0 13 -12 13h-340q-32 0 -29 33l19 141q3 33 35 33h952q29 0 26 -33z" />
    <glyph glyph-name="tbar" unicode="&#x167;" horiz-adv-x="1191" 
d="M731 887q-1 -15 -11.5 -24t-25.5 -9h-192q-13 0 -13 -12l-14 -117q-3 -12 10 -12h185q15 0 22 -9t4 -24l-8 -82q-7 -33 -37 -33h-184q-11 0 -14 -12l-23 -195q-10 -79 19 -114t100 -35h51q15 0 22.5 -9t4.5 -24l-17 -137q-3 -32 -35 -35q-17 0 -49 -1t-47 -1
q-76 0 -128 11.5t-91.5 40t-54.5 82t-6 132.5l34 285q0 12 -10 12h-98q-32 0 -29 33l10 82q7 33 37 33h97q11 0 14 12l14 117q0 12 -10 12h-104q-14 0 -21 9t-6 24l16 127q3 33 35 33h103q11 0 14 12l29 229q1 15 10.5 24t23.5 9h158q15 0 22.5 -9t4.5 -24l-27 -229
q-2 -5 1 -8.5t9 -3.5h193q15 0 22 -9t4 -24z" />
    <glyph glyph-name="Umacron" unicode="&#x16a;" horiz-adv-x="1263" 
d="M539 1608q-14 0 -22 8.5t-5 23.5l12 99q3 33 35 33h502q32 0 29 -33l-13 -99q-1 -15 -11 -23.5t-24 -8.5h-503zM590 -16q-224 0 -345 131.5t-95 349.5l116 936q3 33 35 33h168q14 0 21 -9t6 -24l-115 -940q-15 -122 49 -197.5t184 -75.5q121 0 205 75.5t99 197.5l114 940
q1 15 11 24t24 9h168q32 0 29 -33l-117 -936q-26 -218 -178.5 -349.5t-378.5 -131.5z" />
    <glyph glyph-name="umacron" unicode="&#x16b;" horiz-adv-x="1075" 
d="M909 1358q32 0 29 -33l-12 -98q-1 -15 -11.5 -24t-25.5 -9h-502q-32 0 -29 33l13 98q7 33 37 33h501zM807 1014q7 33 37 33h164q31 0 28 -33l-121 -981q-1 -15 -10.5 -24t-23.5 -9h-166q-14 0 -22 9t-5 24l6 53q0 8 -4 9.5t-10 -5.5q-90 -104 -254 -104
q-97 0 -171.5 37.5t-115 117.5t-26.5 191l84 682q3 33 34 33h168q14 0 21 -9t6 -24l-76 -615q-11 -97 30.5 -154t129.5 -57q89 0 150 58t73 153z" />
    <glyph glyph-name="Uring" unicode="&#x16e;" horiz-adv-x="1263" 
d="M784 1567q-91 0 -145.5 64.5t-42.5 156.5q10 94 81 157.5t163 63.5q91 0 145 -63.5t43 -157.5q-10 -92 -81.5 -156.5t-162.5 -64.5zM799 1679q43 0 79 32t42 77q4 47 -24 78.5t-71 31.5q-45 0 -79.5 -31.5t-40.5 -78.5q-6 -45 21.5 -77t72.5 -32zM590 -16
q-224 0 -345 131.5t-95 349.5l116 936q3 33 35 33h168q14 0 21 -9t6 -24l-115 -940q-15 -122 49 -197.5t184 -75.5q121 0 205 75.5t99 197.5l114 940q1 15 11 24t24 9h168q32 0 29 -33l-117 -936q-26 -218 -178.5 -349.5t-378.5 -131.5z" />
    <glyph glyph-name="uring" unicode="&#x16f;" horiz-adv-x="1075" 
d="M633 1153q-91 0 -146.5 64.5t-44.5 156.5q12 94 82.5 157.5t161.5 63.5t146 -63.5t45 -157.5q-12 -92 -82.5 -156.5t-161.5 -64.5zM674 1485q-45 0 -81 -32t-40 -79q-6 -46 21 -77t71 -31q45 0 81 31.5t40 76.5q6 47 -21.5 79t-70.5 32zM807 1014q7 33 37 33h164
q31 0 28 -33l-121 -981q-1 -15 -10.5 -24t-23.5 -9h-166q-14 0 -22 9t-5 24l6 53q0 8 -4 9.5t-10 -5.5q-90 -104 -254 -104q-97 0 -171.5 37.5t-115 117.5t-26.5 191l84 682q3 33 34 33h168q14 0 21 -9t6 -24l-76 -615q-11 -97 30.5 -154t129.5 -57q89 0 150 58t73 153z" />
    <glyph glyph-name="Uhungarumlaut" unicode="&#x170;" horiz-adv-x="1263" 
d="M555 1587q-19 0 -24 11t4 28l116 193q12 24 39 24h144q19 0 24.5 -11t-4.5 -28l-127 -194q-13 -23 -39 -23h-133zM901 1587q-19 0 -24.5 11t4.5 28l125 195q16 22 41 22h131q19 0 24.5 -11t-6.5 -28l-127 -194q-13 -23 -39 -23h-129zM590 -16q-224 0 -345 131.5
t-95 349.5l116 936q3 33 35 33h168q14 0 21 -9t6 -24l-115 -940q-15 -122 49 -197.5t184 -75.5q121 0 205 75.5t99 197.5l114 940q1 15 11 24t24 9h168q32 0 29 -33l-117 -936q-26 -218 -178.5 -349.5t-378.5 -131.5z" />
    <glyph glyph-name="uhungarumlaut" unicode="&#x171;" horiz-adv-x="1075" 
d="M682 1430q19 0 24.5 -11t-6.5 -28l-125 -195q-16 -22 -40 -22h-134q-17 0 -22 10.5t4 27.5l115 193q16 25 41 25h143zM1026 1430q19 0 24 -11t-6 -28l-126 -195q-16 -22 -41 -22h-129q-18 0 -23.5 10.5t4.5 27.5l125 195q16 23 41 23h131zM807 1014q7 33 37 33h164
q31 0 28 -33l-121 -981q-1 -15 -10.5 -24t-23.5 -9h-166q-14 0 -22 9t-5 24l6 53q0 8 -4 9.5t-10 -5.5q-90 -104 -254 -104q-97 0 -171.5 37.5t-115 117.5t-26.5 191l84 682q3 33 34 33h168q14 0 21 -9t6 -24l-76 -615q-11 -97 30.5 -154t129.5 -57q89 0 150 58t73 153z" />
    <glyph glyph-name="Uogonek" unicode="&#x172;" horiz-adv-x="1263" 
d="M1032 1401q1 15 11 24t24 9h168q32 0 29 -33l-117 -936q-25 -200 -157.5 -328.5t-332.5 -150.5q-8 0 -14 -6q-104 -84 -96 -152q4 -35 32.5 -48t67.5 -3q35 6 35 -25l2 -63q0 -31 -27 -39q-38 -11 -78.5 -13.5t-82.5 5.5t-72 38.5t-37 81.5q-16 109 96 215q6 5 5 10t-7 5
q-175 33 -264.5 158.5t-66.5 314.5l116 936q3 33 35 33h168q14 0 21 -9t6 -24l-115 -940q-15 -122 49 -197.5t184 -75.5q121 0 205 75.5t99 197.5z" />
    <glyph glyph-name="uogonek" unicode="&#x173;" horiz-adv-x="1081" 
d="M866 -248q32 6 35 -24l2 -64q-3 -31 -29 -39q-38 -11 -78.5 -13.5t-82.5 6t-71.5 39t-35.5 81.5q-9 62 24 125.5t109 122.5q4 3 5.5 6.5t-0.5 5.5t-7 2h-22q-14 0 -22 9t-5 24l6 53q0 8 -4 9.5t-10 -5.5q-90 -104 -254 -104q-97 0 -171.5 37.5t-115 117.5t-26.5 191
l84 682q3 33 34 33h168q14 0 21 -9t6 -24l-76 -615q-11 -97 30.5 -154t129.5 -57q89 0 150 58t73 153l74 615q7 33 37 33h164q31 0 28 -33l-123 -1006q-4 -12 -6 -14q-9 -9 -41 -33q-108 -86 -102 -158q4 -35 33 -48t69 -3z" />
    <glyph glyph-name="Wcircumflex" unicode="&#x174;" horiz-adv-x="1722" 
d="M762 1556q-20 0 -25.5 12t8.5 27l170 201q18 21 41 21h170q21 0 35 -21l123 -199q11 -15 3.5 -28t-27.5 -13h-115q-23 0 -35 21l-72 131q-3 4 -8 4t-8 -4l-102 -131q-18 -21 -41 -21h-117zM397 0q-29 0 -32 29l-189 1368q-3 17 6 27t25 10h180q28 0 31 -29l110 -922
q0 -6 3.5 -7.5t7.5 0.5t6 7l325 922q9 29 37 29h178q30 0 33 -29l113 -922q1 -9 7 -9t9 9l334 922q9 29 37 29h172q15 0 20.5 -10t-0.5 -27l-505 -1368q-9 -29 -39 -29h-172q-31 0 -31 29l-113 964q0 6 -3 7.5t-7 -0.5t-6 -7l-338 -964q-9 -29 -37 -29h-162z" />
    <glyph glyph-name="wcircumflex" unicode="&#x175;" horiz-adv-x="1511" 
d="M594 1169q-19 0 -23 12t9 27l170 201q15 21 38 21h173q20 0 34 -21l123 -199q9 -15 2 -28t-26 -13h-115q-25 0 -37 21l-72 131q-2 5 -6.5 5t-7.5 -5l-104 -131q-18 -21 -39 -21h-119zM330 0q-27 0 -33 27l-160 983q-3 37 33 37h174q29 0 29 -29l82 -672q0 -6 3 -7.5
t6.5 0.5t4.5 7l252 672q10 29 39 29h153q30 0 33 -29l92 -674q0 -5 3.5 -7t7 0t4.5 7l254 674q10 29 39 29l172 -3q15 0 21.5 -9.5t0.5 -26.5l-403 -981q-12 -27 -39 -27h-176q-27 0 -33 27l-94 612q-3 7 -9 7t-8 -7l-231 -610q-13 -29 -41 -29h-176z" />
    <glyph glyph-name="Ycircumflex" unicode="&#x176;" horiz-adv-x="1189" 
d="M496 1556q-20 0 -25.5 12t8.5 27l170 201q18 21 41 21h170q21 0 35 -21l123 -199q11 -15 3 -28t-28 -13h-114q-23 0 -35 21l-72 131q-3 4 -8 4t-8 -4l-103 -131q-18 -21 -41 -21h-116zM471 2q-32 0 -29 33l68 538q0 2 -1 7.5t-1 7.5l-303 807q-6 18 1 28.5t25 10.5h181
q25 0 34 -25l203 -563q3 -6 8.5 -6t8.5 6l344 563q16 25 41 25h182q18 0 22.5 -11t-6.5 -28l-504 -807q-3 -9 -6 -15l-65 -538q-1 -15 -11.5 -24t-25.5 -9h-166z" />
    <glyph glyph-name="ycircumflex" unicode="&#x177;" horiz-adv-x="970" 
d="M340 1186q-19 0 -23 12t9 27l170 200q15 21 39 21h172q20 0 34 -21l123 -198q9 -15 2 -28t-26 -13h-117q-24 0 -35 20l-72 131q-2 5 -6.5 5t-7.5 -5l-104 -131q-17 -20 -41 -20h-117zM14 -408q-13 0 -10 33l16 131q1 14 6.5 23.5t10.5 9.5h12q119 0 175 39t106 164
q2 6 2 16l-203 1002q-3 18 6 27.5t25 9.5h180q28 0 31 -27l112 -678q1 -5 4 -6.5t6.5 0t6.5 6.5l270 678q12 27 39 27h180q16 0 22.5 -9t-1.5 -28l-480 -1067q-40 -87 -71.5 -141t-71.5 -98.5t-89 -66.5t-114 -33.5t-157 -11.5h-13z" />
    <glyph glyph-name="Ydieresis" unicode="&#x178;" horiz-adv-x="1189" 
d="M567 1577q-55 0 -85.5 35t-24.5 92q7 57 46 92t95 35q54 0 83.5 -35t23.5 -92q-7 -57 -45.5 -92t-92.5 -35zM930 1577q-54 0 -84 35t-23 92q6 57 45 92t95 35q55 0 84.5 -35t21.5 -92q-6 -57 -44.5 -92t-94.5 -35zM471 2q-32 0 -29 33l68 538q0 2 -1 7.5t-1 7.5l-303 807
q-6 18 1 28.5t25 10.5h181q25 0 34 -25l203 -563q3 -6 8.5 -6t8.5 6l344 563q16 25 41 25h182q18 0 22.5 -11t-6.5 -28l-504 -807q-3 -9 -6 -15l-65 -538q-1 -15 -11.5 -24t-25.5 -9h-166z" />
    <glyph glyph-name="Zacute" unicode="&#x179;" horiz-adv-x="1099" 
d="M618 1591q-19 0 -24 11t6 28l127 195q16 22 41 22h156q20 0 24 -11t-8 -28l-152 -196q-16 -21 -40 -21h-130zM66 0q-32 0 -29 33l20 160q3 18 17 40l786 981q11 15 -6 15h-637q-32 0 -29 33l17 139q7 33 37 33h878q14 0 21 -9t6 -24l-19 -160q-3 -23 -18 -41l-784 -981
q-6 -6 -4 -10t10 -4h637q31 0 28 -33l-18 -139q-1 -15 -11 -24t-24 -9h-878z" />
    <glyph glyph-name="zacute" unicode="&#x17a;" horiz-adv-x="903" 
d="M473 1202q-18 0 -23 11t5 28l127 195q16 22 41 22h155q20 0 24.5 -11t-7.5 -28l-152 -196q-16 -21 -41 -21h-129zM47 0q-14 0 -22 9t-5 24l19 160q3 23 20 40l553 584q6 6 4 10t-10 4h-446q-32 0 -29 33l19 150q7 33 36 33h707q32 0 29 -33l-21 -160q-3 -26 -18 -41
l-568 -584q-4 -6 -1.5 -10t8.5 -4h475q31 0 28 -33l-18 -149q-1 -15 -11.5 -24t-25.5 -9h-723z" />
    <glyph glyph-name="Zdotaccent" unicode="&#x17b;" horiz-adv-x="1099" 
d="M698 1585q-51 0 -78.5 33t-21.5 86q6 52 43 84.5t88 32.5t77.5 -32t20.5 -85t-42 -86t-87 -33zM66 0q-32 0 -29 33l20 160q3 18 17 40l786 981q11 15 -6 15h-637q-32 0 -29 33l17 139q7 33 37 33h878q14 0 21 -9t6 -24l-19 -160q-3 -23 -18 -41l-784 -981q-6 -6 -4 -10
t10 -4h637q31 0 28 -33l-18 -139q-1 -15 -11 -24t-24 -9h-878z" />
    <glyph glyph-name="zdotaccent" unicode="&#x17c;" horiz-adv-x="903" 
d="M555 1196q-51 0 -79.5 33t-22.5 86q7 52 43.5 84.5t87.5 32.5t77.5 -32t20.5 -85t-41 -86t-86 -33zM47 0q-14 0 -22 9t-5 24l19 160q3 23 20 40l553 584q6 6 4 10t-10 4h-446q-32 0 -29 33l19 150q7 33 36 33h707q32 0 29 -33l-21 -160q-3 -26 -18 -41l-568 -584
q-4 -6 -1.5 -10t8.5 -4h475q31 0 28 -33l-18 -149q-1 -15 -11.5 -24t-25.5 -9h-723z" />
    <glyph glyph-name="Zcaron" unicode="&#x17d;" horiz-adv-x="1099" 
d="M602 1571q-24 0 -35 20l-110 201q-9 17 -1.5 28t27.5 11h113q23 0 35 -21l71 -131q3 -5 8.5 -5t8.5 5l102 131q18 21 41 21h111q20 0 24 -11t-8 -28l-160 -201q-17 -20 -41 -20h-186zM66 0q-32 0 -29 33l20 160q3 18 17 40l786 981q11 15 -6 15h-637q-32 0 -29 33l17 139
q7 33 37 33h878q14 0 21 -9t6 -24l-19 -160q-3 -23 -18 -41l-784 -981q-6 -6 -4 -10t10 -4h637q31 0 28 -33l-18 -139q-1 -15 -11 -24t-24 -9h-878z" />
    <glyph glyph-name="zcaron" unicode="&#x17e;" horiz-adv-x="903" 
d="M457 1182q-24 0 -35 20l-111 201q-8 17 -0.5 28t27.5 11h113q24 0 36 -21l70 -131q3 -4 8 -4t8 4l105 131q15 21 39 21h112q19 0 23 -11t-8 -28l-160 -201q-17 -20 -41 -20h-186zM47 0q-14 0 -22 9t-5 24l19 160q3 23 20 40l553 584q6 6 4 10t-10 4h-446q-32 0 -29 33
l19 150q7 33 36 33h707q32 0 29 -33l-21 -160q-3 -26 -18 -41l-568 -584q-4 -6 -1.5 -10t8.5 -4h475q31 0 28 -33l-18 -149q-1 -15 -11.5 -24t-25.5 -9h-723z" />
    <glyph glyph-name="florin" unicode="&#x192;" horiz-adv-x="1093" 
d="M610 1096q19 74 40.5 125t52.5 90t67 62.5t90.5 37.5t116.5 19t151 4q14 0 21 -9t6 -24l-14 -127q-7 -33 -37 -33h-74q-85 0 -126 -35.5t-68 -130.5l-54 -188q-3 -13 11 -13h141q32 0 29 -32l-19 -146q-1 -15 -11.5 -23.5t-25.5 -8.5h-174q-10 0 -14 -11l-201 -725
q-21 -73 -42.5 -124t-53 -90.5t-67.5 -62.5t-89.5 -37.5t-115.5 -19.5t-150 -4q-32 0 -29 33l17 127q1 15 11 24t24 9h73q83 0 126 35.5t69 130.5l194 702q3 13 -10 13h-121q-31 0 -28 32l18 146q1 15 11 23.5t24 8.5h158q10 0 14 11z" />
    <glyph glyph-name="uni01CD" unicode="&#x1cd;" horiz-adv-x="1288" 
d="M920 1556q-14 -20 -39 -20h-189q-24 0 -35 20l-110 201q-7 17 0 28t26 11h115q24 0 35 -20l72 -134q1 -4 6 -4t8 4l104 134q17 20 41 20h111q41 0 14 -39zM975 0q-27 0 -33 27l-35 211q0 10 -12 10h-520q-12 0 -17 -10l-86 -211q-12 -27 -41 -27h-180q-15 0 -20.5 10
t0.5 27l594 1370q12 27 39 27h231q27 0 33 -27l258 -1370q3 -17 -5.5 -27t-23.5 -10h-182zM446 449q-6 -15 9 -15h405q12 0 12 15l-120 696q-1 5 -4 6.5t-6 0t-5 -6.5z" />
    <glyph glyph-name="uni01CE" unicode="&#x1ce;" horiz-adv-x="1093" 
d="M780 1169q-14 -20 -39 -20h-186q-26 0 -37 20l-108 201q-9 17 -1.5 28t27.5 11h113q24 0 35 -20l71 -134q1 -5 6.5 -5t8.5 5l104 134q17 20 41 20h111q20 0 24 -11t-10 -28zM823 1014q1 15 11.5 24t25.5 9h166q32 0 29 -33l-121 -981q-1 -15 -11.5 -24t-25.5 -9h-166
q-32 0 -29 33l7 49q1 7 -3.5 9.5t-9.5 -3.5q-96 -104 -237 -104q-140 0 -229 76t-117 210q-22 118 -4 256q16 144 63 250q62 136 169 211.5t251 75.5q136 0 213 -96q5 -7 8.5 -5.5t5.5 9.5zM686 287q57 80 76 237q19 161 -21 244q-43 90 -137 90q-103 0 -170 -86
q-70 -92 -88 -250q-18 -148 19 -233q42 -99 155 -99q98 0 166 97z" />
    <glyph glyph-name="uni0218" unicode="&#x218;" horiz-adv-x="1171" 
d="M551 -16q-230 0 -353 111.5t-100 299.5l6 43q3 33 35 33h164q30 0 27 -31l-4 -32q-11 -94 61.5 -157t206.5 -63q121 0 188.5 53.5t77.5 137.5q5 35 -5 64t-28.5 50.5t-60.5 46.5t-81.5 43t-111.5 48q-78 31 -123.5 52t-106.5 59.5t-91 79t-48.5 102.5t-8.5 137
q22 181 161.5 285t352.5 104q226 0 350.5 -116.5t101.5 -305.5l-4 -27q-3 -32 -35 -32h-164q-14 0 -21.5 7t-6.5 17l4 23q11 97 -57.5 163t-202.5 66q-110 0 -177 -47t-77 -133q-3 -27 1 -49t12 -40t28.5 -35.5t40 -31t57 -31t69 -30.5t85.5 -35q161 -66 227 -110
q157 -103 155 -270q0 -23 -3 -48q-22 -182 -168 -291.5t-373 -109.5zM344 -385q-19 0 -24 11t6 28l127 194q16 23 41 23h155q20 0 24.5 -11t-7.5 -28l-152 -197q-15 -20 -41 -20h-129z" />
    <glyph glyph-name="uni0219" unicode="&#x219;" horiz-adv-x="980" 
d="M461 -12q-188 0 -292 82t-89 209l2 10q3 33 35 33h159q13 0 22 -4.5t7 -10.5v-14q-8 -52 42 -89.5t134 -37.5q79 0 133 34t60 85q3 21 -5 38t-21 28t-38.5 22t-47 18t-58 18.5t-60.5 20.5q-39 12 -66.5 22t-63.5 26.5t-60 33t-48.5 40.5t-38 51t-19.5 63.5t-1 78.5
q19 145 137.5 229.5t297.5 84.5q182 0 282.5 -87t83.5 -224q-4 -25 -35 -25h-153q-31 0 -31 12l2 13q6 53 -40 88.5t-134 35.5q-78 0 -129.5 -29t-58.5 -83q-2 -14 0.5 -25.5t10 -22t15 -18.5t23.5 -16t26.5 -13.5t33.5 -13t36 -11.5t40.5 -12t41.5 -12q42 -13 69.5 -22.5
t65.5 -26t63 -32.5t51 -40.5t40 -51.5t20.5 -64t1.5 -80q-19 -146 -139 -228.5t-307 -82.5zM262 -381q-19 0 -24.5 11t4.5 28l127 195q16 22 41 22h157q19 0 23 -11t-8 -28l-152 -196q-16 -21 -39 -21h-129z" />
    <glyph glyph-name="uni021A" unicode="&#x21a;" horiz-adv-x="1171" 
d="M201 1401q3 33 35 33h952q29 0 26 -33l-16 -141q-1 -15 -11.5 -24t-25.5 -9h-354q-11 0 -14 -13l-146 -1181q-1 -15 -11 -24t-24 -9h-168q-14 0 -21.5 9t-4.5 24l145 1181q0 13 -12 13h-340q-32 0 -29 33zM287 -369q-19 0 -25 11t6 28l127 195q13 22 39 22h158
q20 0 24 -11t-10 -28l-149 -196q-16 -21 -41 -21h-129z" />
    <glyph glyph-name="uni021B" unicode="&#x21b;" horiz-adv-x="743" 
d="M731 887q-1 -15 -11.5 -24t-25.5 -9h-192q-13 0 -13 -12l-59 -484q-10 -79 19 -114t100 -35h51q15 0 22.5 -9t4.5 -24l-17 -137q-3 -32 -35 -35q-17 0 -49 -1t-47 -1q-76 0 -128 11.5t-91.5 40t-54.5 82t-6 132.5l69 574q0 12 -10 12h-104q-14 0 -21 9t-6 24l16 127
q3 33 35 33h103q11 0 14 12l29 229q1 15 10.5 24t23.5 9h158q15 0 22.5 -9t4.5 -24l-27 -229q-2 -5 1 -8.5t9 -3.5h193q15 0 22 -9t4 -24zM225 -473q-18 0 -23 11t5 28l127 194q16 23 41 23h157q19 0 23 -11t-8 -28l-152 -197q-15 -20 -41 -20h-129z" />
    <glyph glyph-name="uni0228" unicode="&#x228;" horiz-adv-x="1175" 
d="M1202 1262q-1 -15 -11.5 -24t-25.5 -9h-667q-13 0 -13 -12l-47 -379q0 -13 11 -13h446q30 0 27 -32l-17 -140q-6 -32 -37 -32h-444q-11 0 -14 -13l-48 -391q0 -12 11 -12h667q32 0 29 -33l-18 -139q-1 -15 -11 -24t-24 -9h-320q-8 0 -11 -5t1 -9q92 -109 47 -222
q-19 -51 -56.5 -81.5t-81 -38.5t-83.5 -5.5t-76 13.5q-26 10 -16 39l16 63q9 31 41 25q39 -9 70.5 3.5t44.5 47.5q23 76 -72 164q-6 6 -14 6h-369q-31 0 -28 33l167 1368q7 33 37 33h879q14 0 21 -9t6 -24z" />
    <glyph glyph-name="uni0229" unicode="&#x229;" horiz-adv-x="1077" 
d="M561 184q147 6 230 113q23 29 45 10l86 -78q20 -20 4 -45q-114 -155 -310 -190q-7 -1 -9 -7t3 -10q104 -110 58 -231q-19 -51 -56.5 -81.5t-81 -39t-83.5 -6t-76 13.5q-26 9 -19 39l19 64q9 30 41 24q37 -10 69 3.5t43 48.5q26 78 -78 172l-12 6q-123 19 -199.5 92
t-101.5 192q-25 118 -8 254q16 140 47 217q56 146 178.5 232t280.5 86q373 0 383 -420q3 -79 -6 -168q-1 -15 -11 -24t-24 -9h-617q-11 0 -14 -12q-3 -60 2 -90q12 -73 69 -114.5t148 -41.5zM604 858q-76 0 -129 -38t-80 -105q-12 -25 -26 -86q-3 -13 8 -13h399q12 0 15 13
q0 46 -3 73q-9 72 -57.5 114t-126.5 42z" />
    <glyph glyph-name="circumflex" unicode="&#x2c6;" horiz-adv-x="595" 
d="M152 1169q-20 0 -24.5 12t9.5 27l168 201q18 21 41 21h172q21 0 35 -21l123 -199q9 -15 1 -28t-28 -13h-114q-23 0 -35 21l-72 131q-2 5 -7 5t-9 -5l-103 -131q-18 -21 -41 -21h-116z" />
    <glyph glyph-name="caron" unicode="&#x2c7;" horiz-adv-x="675" 
d="M346 1161q-25 0 -37 21l-110 200q-7 17 0 28t26 11h115q24 0 35 -20l71 -131q2 -4 7 -4t10 4l102 131q17 20 41 20h111q20 0 24 -11t-10 -28l-160 -200q-15 -21 -39 -21h-186z" />
    <glyph glyph-name="uni02C9" unicode="&#x2c9;" horiz-adv-x="565" 
d="M139 1194q-31 0 -28 33l12 98q1 15 11.5 24t25.5 9h502q15 0 22 -9t4 -24l-10 -98q-7 -33 -37 -33h-502z" />
    <glyph glyph-name="breve" unicode="&#x2d8;" horiz-adv-x="565" 
d="M381 1130q-90 0 -149.5 57t-61.5 144q0 16 10.5 25.5t24.5 9.5h63q25 0 31 -31q3 -40 30 -66t66 -26q40 0 73.5 26t47.5 66q12 31 37 31h61q15 0 23.5 -9t5.5 -24q-23 -88 -96.5 -145.5t-165.5 -57.5z" />
    <glyph glyph-name="dotaccent" unicode="&#x2d9;" horiz-adv-x="315" 
d="M262 1171q-51 0 -78.5 33t-21.5 86q6 52 43 84.5t88 32.5t77.5 -32t20.5 -85t-42 -86t-87 -33z" />
    <glyph glyph-name="ring" unicode="&#x2da;" horiz-adv-x="522" 
d="M365 1153q-91 0 -146.5 64.5t-44.5 156.5q12 94 82.5 157.5t161.5 63.5t145.5 -63.5t44.5 -157.5q-12 -93 -82.5 -157t-160.5 -64zM379 1266q43 0 79 31.5t40 76.5q6 47 -21.5 79t-70.5 32q-45 0 -81 -32t-40 -79q-6 -46 21 -77t73 -31z" />
    <glyph glyph-name="ogonek" unicode="&#x2db;" horiz-adv-x="315" 
d="M231 -336q0 -31 -28 -39q-38 -11 -78.5 -13.5t-82 6t-71.5 39t-37 81.5q-16 130 134 248q20 14 41 14h77q23 0 26 -12t-17 -27q-109 -87 -103 -158q4 -35 33 -48t70 -3q31 5 34 -24z" />
    <glyph glyph-name="tilde" unicode="&#x2dc;" horiz-adv-x="696" 
d="M561 1188q-25 0 -50.5 9t-38 17.5t-34.5 24.5q-43 35 -78 35q-50 0 -84 -39q-23 -29 -45 -10l-49 41q-23 17 -6 43q35 61 85.5 92t103.5 31q24 0 47 -8t35 -15.5t38 -24.5q57 -38 90 -38q49 0 82 40q26 30 48 11l49 -37q23 -17 -6 -60q-40 -56 -91 -84t-96 -28z" />
    <glyph glyph-name="hungarumlaut" unicode="&#x2dd;" horiz-adv-x="802" 
d="M197 1194q-19 0 -25 11t6 28l125 194q13 23 39 23h156q20 0 24 -11t-10 -28l-150 -197q-15 -20 -40 -20h-125zM549 1194q-18 0 -23.5 11t4.5 28l125 194q16 23 41 23h156q19 0 22.5 -11t-8.5 -28l-151 -197q-15 -20 -39 -20h-127z" />
    <glyph glyph-name="gravecomb" unicode="&#x300;" 
d="M88 1217q7 -17 -1.5 -28t-27.5 -11h-129q-24 0 -34 20l-103 197q-9 17 -2 28t27 11h155q27 0 37 -23z" />
    <glyph glyph-name="acutecomb" unicode="&#x301;" 
d="M-279 1178q-18 0 -23 11t5 28l127 194q16 23 41 23h158q19 0 22.5 -11t-8.5 -28l-152 -197q-15 -20 -41 -20h-129z" />
    <glyph glyph-name="uni0302" unicode="&#x302;" 
d="M-444 1169q-20 0 -24.5 12t9.5 27l168 201q18 21 41 21h172q21 0 35 -21l123 -199q9 -15 1 -28t-28 -13h-114q-23 0 -35 21l-72 131q-2 5 -7 5t-9 -5l-103 -131q-18 -21 -41 -21h-116z" />
    <glyph glyph-name="tildecomb" unicode="&#x303;" 
d="M-111 1188q-25 0 -50.5 9.5t-37 17t-34.5 24.5q-43 35 -76 35q-50 0 -84 -39q-23 -29 -45 -10l-49 41q-24 17 -9 43q75 123 189 123q25 0 48.5 -8t36.5 -15.5t38 -24.5q53 -38 90 -38q50 0 80 40q26 29 47 11l49 -37q23 -17 -6 -60q-39 -56 -89.5 -84t-97.5 -28z" />
    <glyph glyph-name="uni0304" unicode="&#x304;" 
d="M-426 1194q-32 0 -29 33l13 98q2 15 11.5 24t24.5 9h502q15 0 22.5 -9t4.5 -24l-10 -98q-7 -33 -37 -33h-502z" />
    <glyph glyph-name="uni0306" unicode="&#x306;" 
d="M-186 1112q-90 0 -149.5 57t-61.5 144q0 16 10.5 25.5t24.5 9.5h63q25 0 31 -31q3 -40 30 -66t66 -26q40 0 73.5 26t47.5 66q12 31 37 31h61q15 0 23.5 -9t5.5 -24q-24 -87 -97.5 -145t-164.5 -58z" />
    <glyph glyph-name="uni0307" unicode="&#x307;" 
d="M-10 1171q-51 0 -79 33t-22 86q6 52 42 84.5t87 32.5t79 -32.5t22 -84.5q-8 -53 -43 -86t-86 -33z" />
    <glyph glyph-name="uni0308" unicode="&#x308;" 
d="M-381 1190q-56 0 -85.5 35t-22.5 92q6 57 44.5 92t94.5 35q54 0 83 -35t23 -92q-8 -57 -45.5 -92t-91.5 -35zM-16 1190q-56 0 -86 35t-23 92q8 57 46 92t93 35q56 0 85 -35t22 -92q-6 -57 -44.5 -92t-92.5 -35z" />
    <glyph glyph-name="uni030A" unicode="&#x30a;" 
d="M-109 1153q-92 0 -146.5 64t-43.5 157q12 94 82.5 157.5t161.5 63.5t145.5 -63.5t44.5 -157.5q-12 -92 -82.5 -156.5t-161.5 -64.5zM-96 1266q44 0 80.5 31.5t40.5 76.5q6 47 -22 79t-73 32q-44 0 -79 -32t-41 -79q-4 -46 23 -77t71 -31z" />
    <glyph glyph-name="uni030B" unicode="&#x30b;" 
d="M-575 1174q-19 0 -24.5 10.5t3.5 27.5l117 193q13 25 39 25h143q19 0 25 -11t-4 -28l-127 -195q-13 -22 -39 -22h-133zM-231 1174q-18 0 -23.5 10.5t4.5 27.5l125 195q16 23 41 23h131q19 0 25 -11t-6 -28l-127 -195q-13 -22 -41 -22h-129z" />
    <glyph glyph-name="uni030C" unicode="&#x30c;" 
d="M-332 1153q-23 0 -35 21l-110 200q-9 17 -1.5 28t27.5 11h113q24 0 35 -20l72 -133q3 -4 8 -4t8 4l104 133q14 20 39 20h113q19 0 22.5 -11t-8.5 -28l-159 -200q-18 -21 -41 -21h-187z" />
    <glyph glyph-name="uni0312" unicode="&#x312;" 
d="M47 1417q19 0 25 -11t-6 -28l-127 -194q-13 -23 -41 -23h-156q-20 0 -24 11t8 28l151 197q15 20 41 20h129z" />
    <glyph glyph-name="uni0313" unicode="&#x313;" 
d="M-215 1178q-19 0 -25 11t4 28l127 194q16 23 41 23h158q19 0 22.5 -11t-8.5 -28l-151 -197q-15 -20 -39 -20h-129z" />
    <glyph glyph-name="uni0326" unicode="&#x326;" 
d="M-449 -369q-18 0 -23 11t5 28l127 195q16 22 41 22h156q20 0 24 -11t-8 -28l-152 -196q-16 -21 -40 -21h-130z" />
    <glyph glyph-name="uni0327" unicode="&#x327;" 
d="M-375 -375q-25 8 -18 39l18 64q9 30 41 24q38 -10 70 3t43 48q24 68 -62 158q-15 15 -10 27t27 12h78q22 0 36 -14q123 -117 74 -248q-19 -51 -56.5 -81.5t-81 -39t-83.5 -6t-76 13.5z" />
    <glyph glyph-name="uni0328" unicode="&#x328;" 
d="M-84 -336q0 -30 -29 -39q-38 -11 -78.5 -13.5t-82 6t-71 39t-36.5 81.5q-16 131 133 248q20 14 41 14h78q23 0 25.5 -12t-17.5 -27q-108 -86 -102 -158q4 -35 33 -48t69 -3q32 6 35 -24z" />
    <glyph glyph-name="uni0335" unicode="&#x335;" 
d="M-561 1268q3 32 35 32h614q33 0 27 -32l-11 -82q-3 -33 -34 -33h-615q-14 0 -21.5 9t-4.5 24z" />
    <glyph glyph-name="uni0336" unicode="&#x336;" 
d="M-1102 1049q-31 0 -28 32l12 97q1 15 11.5 23.5t25.5 8.5h1157q31 0 28 -32l-12 -97q-1 -15 -11.5 -23.5t-25.5 -8.5h-1157z" />
    <glyph glyph-name="uni0337" unicode="&#x337;" 
d="M-844 -8q-30 -23 -43 4l-61 88q-19 26 10 45l1004 760q30 20 45 -4l61 -90q16 -26 -12 -45z" />
    <glyph glyph-name="uni0338" unicode="&#x338;" 
d="M-950 -84q-19 0 -24 11t5 28l942 1548q16 25 41 25h92q17 0 21.5 -11t-4.5 -28l-944 -1548q-13 -25 -39 -25h-90z" />
    <glyph glyph-name="uni0394" unicode="&#x394;" horiz-adv-x="1296" 
d="M45 0q-14 0 -21 9t-6 24l19 151q3 24 12 39l637 1186q12 25 39 25h119q27 0 33 -25l346 -1188q6 -22 4 -39l-19 -149q-1 -15 -11.5 -24t-25.5 -9h-1126zM270 219q-3 -7 0.5 -10.5t8.5 -3.5h710q16 0 10 14l-247 891q-1 5 -4 6.5t-6.5 0t-6.5 -6.5z" />
    <glyph glyph-name="uni03A9" unicode="&#x3a9;" horiz-adv-x="1265" 
d="M102 0q-29 0 -26 33l16 139q1 15 11.5 24t25.5 9h98q8 0 10.5 4t-1.5 10q-106 116 -82 318l51 413q28 224 183.5 362t381.5 138q227 0 349.5 -138t94.5 -362l-49 -413q-24 -200 -161 -318q-6 -6 -4 -10t8 -4h100q15 0 22.5 -9t4.5 -24l-17 -139q-1 -15 -11 -24t-24 -9
h-393q-31 0 -28 33l18 147q3 26 33 35q79 23 141.5 100t75.5 183l55 456q17 132 -49 212.5t-191 80.5q-124 0 -209 -80.5t-102 -212.5l-55 -456q-13 -106 29.5 -183.5t115.5 -101.5q28 -9 25 -35l-19 -145q-1 -15 -10.5 -24t-23.5 -9h-394z" />
    <glyph glyph-name="uni03BC" unicode="&#x3bc;" horiz-adv-x="1091" 
d="M819 1014q7 33 37 33h164q32 0 29 -33l-121 -981q-1 -15 -11 -24t-24 -9h-166q-32 0 -29 33l9 53q0 8 -4.5 9.5t-10.5 -5.5q-90 -104 -254 -104q-61 0 -110 14q-15 4 -15 -10l-45 -367q-7 -33 -37 -33h-165q-32 0 -29 33l172 1391q3 33 35 33h166q31 0 28 -33l-76 -615
q-11 -97 30.5 -154t129.5 -57q89 0 150 58t71 153z" />
    <glyph glyph-name="pi" unicode="&#x3c0;" horiz-adv-x="1302" 
d="M1307 877q-3 -33 -35 -33h-115q-11 0 -14 -13l-58 -462q-8 -69 1.5 -106t28.5 -47.5t56 -10.5q32 0 29 -33l-18 -139q-1 -15 -11 -24t-24 -9q-60 -1 -94.5 0.5t-86 14t-77.5 37t-42 74t-7 120.5l73 585q0 13 -10 13h-364q-12 0 -15 -13l-96 -798q-7 -33 -37 -33h-166
q-31 0 -28 33l98 798q0 13 -10 13h-125q-32 0 -29 33l16 137q7 33 37 33h1112q32 0 29 -33z" />
    <glyph glyph-name="Wgrave" unicode="&#x1e80;" horiz-adv-x="1722" 
d="M1100 1604q6 -17 -2.5 -28t-26.5 -11h-131q-25 0 -35 20l-102 197q-17 39 24 39h158q25 0 35 -23zM397 0q-29 0 -32 29l-189 1368q-3 17 6 27t25 10h180q28 0 31 -29l110 -922q0 -6 3.5 -7.5t7.5 0.5t6 7l325 922q9 29 37 29h178q30 0 33 -29l113 -922q1 -9 7 -9t9 9
l334 922q9 29 37 29h172q15 0 20.5 -10t-0.5 -27l-505 -1368q-9 -29 -39 -29h-172q-31 0 -31 29l-113 964q0 6 -3 7.5t-7 -0.5t-6 -7l-338 -964q-9 -29 -37 -29h-162z" />
    <glyph glyph-name="wgrave" unicode="&#x1e81;" horiz-adv-x="1511" 
d="M932 1217q7 -17 -1.5 -28t-27.5 -11h-129q-25 0 -35 20l-102 197q-9 17 -2 28t27 11h155q25 0 35 -23zM330 0q-27 0 -33 27l-160 983q-3 37 33 37h174q29 0 29 -29l82 -672q0 -6 3 -7.5t6.5 0.5t4.5 7l252 672q10 29 39 29h153q30 0 33 -29l92 -674q0 -5 3.5 -7t7 0
t4.5 7l254 674q10 29 39 29l172 -3q15 0 21.5 -9.5t0.5 -26.5l-403 -981q-12 -27 -39 -27h-176q-27 0 -33 27l-94 612q-3 7 -9 7t-8 -7l-231 -610q-13 -29 -41 -29h-176z" />
    <glyph glyph-name="Wacute" unicode="&#x1e82;" horiz-adv-x="1722" 
d="M932 1565q-19 0 -25 11t4 28l127 194q16 23 41 23h158q19 0 22.5 -11t-8.5 -28l-151 -197q-12 -20 -39 -20h-129zM397 0q-29 0 -32 29l-189 1368q-3 17 6 27t25 10h180q28 0 31 -29l110 -922q0 -6 3.5 -7.5t7.5 0.5t6 7l325 922q9 29 37 29h178q30 0 33 -29l113 -922
q1 -9 7 -9t9 9l334 922q9 29 37 29h172q15 0 20.5 -10t-0.5 -27l-505 -1368q-9 -29 -39 -29h-172q-31 0 -31 29l-113 964q0 6 -3 7.5t-7 -0.5t-6 -7l-338 -964q-9 -29 -37 -29h-162z" />
    <glyph glyph-name="wacute" unicode="&#x1e83;" horiz-adv-x="1511" 
d="M764 1178q-18 0 -23.5 11t4.5 28l127 194q16 23 41 23h156q20 0 24 -11t-8 -28l-151 -197q-15 -20 -41 -20h-129zM330 0q-27 0 -33 27l-160 983q-3 37 33 37h174q29 0 29 -29l82 -672q0 -6 3 -7.5t6.5 0.5t4.5 7l252 672q10 29 39 29h153q30 0 33 -29l92 -674
q0 -5 3.5 -7t7 0t4.5 7l254 674q10 29 39 29l172 -3q15 0 21.5 -9.5t0.5 -26.5l-403 -981q-12 -27 -39 -27h-176q-27 0 -33 27l-94 612q-3 7 -9 7t-8 -7l-231 -610q-13 -29 -41 -29h-176z" />
    <glyph glyph-name="Wdieresis" unicode="&#x1e84;" horiz-adv-x="1722" 
d="M834 1577q-56 0 -86.5 35t-24.5 92q7 57 46 92t95 35q54 0 83.5 -35t23.5 -92q-8 -57 -45.5 -92t-91.5 -35zM1196 1577q-54 0 -83.5 35t-22.5 92q6 57 44.5 92t94.5 35q55 0 84.5 -35t21.5 -92q-6 -57 -44.5 -92t-94.5 -35zM397 0q-29 0 -32 29l-189 1368q-3 17 6 27
t25 10h180q28 0 31 -29l110 -922q0 -6 3.5 -7.5t7.5 0.5t6 7l325 922q9 29 37 29h178q30 0 33 -29l113 -922q1 -9 7 -9t9 9l334 922q9 29 37 29h172q15 0 20.5 -10t-0.5 -27l-505 -1368q-9 -29 -39 -29h-172q-31 0 -31 29l-113 964q0 6 -3 7.5t-7 -0.5t-6 -7l-338 -964
q-9 -29 -37 -29h-162z" />
    <glyph glyph-name="wdieresis" unicode="&#x1e85;" horiz-adv-x="1511" 
d="M666 1190q-55 0 -85.5 35.5t-23.5 91.5q7 57 46 92t95 35q54 0 83 -35t22 -92q-6 -57 -44.5 -92t-92.5 -35zM1030 1190q-55 0 -84.5 35t-23.5 92q8 57 46 92t93 35t84.5 -35t23.5 -92q-8 -57 -46 -92t-93 -35zM330 0q-27 0 -33 27l-160 983q-3 37 33 37h174q29 0 29 -29
l82 -672q0 -6 3 -7.5t6.5 0.5t4.5 7l252 672q10 29 39 29h153q30 0 33 -29l92 -674q0 -5 3.5 -7t7 0t4.5 7l254 674q10 29 39 29l172 -3q15 0 21.5 -9.5t0.5 -26.5l-403 -981q-12 -27 -39 -27h-176q-27 0 -33 27l-94 612q-3 7 -9 7t-8 -7l-231 -610q-13 -29 -41 -29h-176z
" />
    <glyph glyph-name="Ygrave" unicode="&#x1ef2;" horiz-adv-x="1189" 
d="M834 1604q6 -17 -2.5 -28t-26.5 -11h-129q-27 0 -37 20l-102 197q-17 39 24 39h158q25 0 35 -23zM471 2q-32 0 -29 33l68 538q0 2 -1 7.5t-1 7.5l-303 807q-6 18 1 28.5t25 10.5h181q25 0 34 -25l203 -563q3 -6 8.5 -6t8.5 6l344 563q16 25 41 25h182q18 0 22.5 -11
t-6.5 -28l-504 -807q-3 -9 -6 -15l-65 -538q-1 -15 -11.5 -24t-25.5 -9h-166z" />
    <glyph glyph-name="ygrave" unicode="&#x1ef3;" horiz-adv-x="970" 
d="M678 1233q6 -17 -2 -28t-27 -11h-129q-25 0 -35 20l-104 197q-8 17 -1 28t26 11h157q25 0 35 -23zM14 -408q-13 0 -10 33l16 131q1 14 6.5 23.5t10.5 9.5h12q119 0 175 39t106 164q2 6 2 16l-203 1002q-3 18 6 27.5t25 9.5h180q28 0 31 -27l112 -678q1 -5 4 -6.5t6.5 0
t6.5 6.5l270 678q12 27 39 27h180q16 0 22.5 -9t-1.5 -28l-480 -1067q-40 -87 -71.5 -141t-71.5 -98.5t-89 -66.5t-114 -33.5t-157 -11.5h-13z" />
    <glyph glyph-name="endash" unicode="&#x2013;" horiz-adv-x="927" 
d="M115 477q-32 0 -29 33l18 139q3 33 35 33h738q15 0 22 -9t4 -24l-16 -139q-1 -15 -11 -24t-24 -9h-737z" />
    <glyph glyph-name="emdash" unicode="&#x2014;" horiz-adv-x="1327" 
d="M115 479q-32 0 -29 33l18 137q3 33 35 33h1137q15 0 22.5 -9t4.5 -24l-17 -137q-1 -15 -11 -24t-24 -9h-1136z" />
    <glyph glyph-name="quoteleft" unicode="&#x2018;" horiz-adv-x="360" 
d="M121 987q-17 0 -23 11t2 28l199 383q11 25 39 25h121q15 0 21.5 -10t0.5 -27l-153 -383q-12 -27 -39 -27h-168z" />
    <glyph glyph-name="quoteright" unicode="&#x2019;" horiz-adv-x="360" 
d="M457 1434q17 0 22.5 -11t-2.5 -28l-198 -383q-11 -25 -39 -25h-121q-15 0 -22 10t-1 27l154 383q12 27 39 27h168z" />
    <glyph glyph-name="quotesinglbase" unicode="&#x201a;" horiz-adv-x="1191" 
d="M66 -186q-15 0 -21.5 9.5t-1.5 24.5l125 443q10 31 39 31h143q15 0 21 -10t0 -27l-168 -443q-9 -28 -39 -28h-98z" />
    <glyph glyph-name="quotedblleft" unicode="&#x201c;" horiz-adv-x="653" 
d="M121 987q-16 0 -22.5 9t1.5 28l181 383q13 27 41 27h112q17 0 23.5 -10t-0.5 -27l-140 -381q-9 -29 -36 -29h-160zM440 987q-35 0 -20 37l180 383q14 27 41 27h113q37 0 24 -37l-141 -381q-9 -29 -37 -29h-160z" />
    <glyph glyph-name="quotedblright" unicode="&#x201d;" horiz-adv-x="653" 
d="M430 1434q38 0 23 -37l-181 -383q-14 -27 -41 -27h-114q-15 0 -22 10t-1 27l139 381q9 29 39 29h158zM750 1434q37 0 22 -37l-180 -383q-14 -27 -41 -27h-115q-15 0 -21.5 10t-0.5 27l139 381q12 29 39 29h158z" />
    <glyph glyph-name="quotedblbase" unicode="&#x201e;" horiz-adv-x="684" 
d="M287 262q38 0 20 -37l-180 -383q-13 -26 -41 -26h-113q-17 0 -23 10t1 27l139 380q9 29 37 29h160zM606 262q39 0 21 -37l-181 -383q-10 -26 -40 -26h-113q-15 0 -22 10t-1 27l140 380q9 29 36 29h160z" />
    <glyph glyph-name="dagger" unicode="&#x2020;" horiz-adv-x="876" 
d="M856 940q32 0 29 -33l-15 -116q-7 -33 -36 -33h-216q-12 0 -12 -13l-137 -1122q-7 -33 -37 -33h-166q-31 0 -28 33l137 1122q3 13 -10 13h-215q-32 0 -29 33l14 116q1 15 11.5 24t25.5 9h215q11 0 14 12l56 449q3 33 35 33h167q14 0 21 -9t6 -24l-55 -449q0 -12 10 -12
h215z" />
    <glyph glyph-name="daggerdbl" unicode="&#x2021;" horiz-adv-x="876" 
d="M870 791q-7 -33 -36 -33h-216q-12 0 -12 -13l-57 -466q-3 -13 10 -13h215q14 0 22 -9t5 -24l-15 -116q-3 -33 -34 -33h-215q-13 0 -13 -12l-55 -449q-7 -33 -37 -33h-166q-31 0 -28 33l55 449q0 12 -10 12h-217q-15 0 -22.5 9t-4.5 24l14 116q3 33 35 33h217q12 0 12 13
l58 466q3 13 -10 13h-215q-32 0 -29 33l14 116q1 15 11.5 24t25.5 9h215q11 0 14 12l56 449q3 33 35 33h167q14 0 21 -9t6 -24l-55 -449q0 -12 10 -12h215q32 0 29 -33z" />
    <glyph glyph-name="bullet" unicode="&#x2022;" horiz-adv-x="624" 
d="M311 303q-104 0 -167.5 75.5t-51.5 180.5q13 107 95.5 180.5t187.5 73.5q100 0 162.5 -73.5t50.5 -180.5q-14 -104 -95.5 -180t-181.5 -76z" />
    <glyph glyph-name="ellipsis" unicode="&#x2026;" horiz-adv-x="1644" 
d="M223 -2q-68 0 -107.5 45.5t-31.5 112.5q7 63 61.5 109t116.5 46q64 0 108.5 -46t35.5 -109q-8 -66 -60.5 -112t-122.5 -46zM782 -2q-69 0 -108 45.5t-31 112.5q7 63 61 109t117 46q64 0 107.5 -45.5t36.5 -109.5q-8 -66 -60.5 -112t-122.5 -46zM1335 -2q-70 0 -109 45.5
t-30 112.5q7 63 61 109t117 46t107 -46t37 -109q-9 -66 -61.5 -112t-121.5 -46z" />
    <glyph glyph-name="perthousand" unicode="&#x2030;" horiz-adv-x="2306" 
d="M356 565q-129 0 -194.5 74.5t-50.5 202.5l41 334q15 126 99.5 200t213.5 74q126 0 192.5 -74t51.5 -200l-41 -334q-15 -127 -100 -202t-212 -75zM344 0q-18 0 -22.5 11t6.5 28l966 1372q13 23 39 23h101q18 0 22.5 -11t-6.5 -28l-965 -1372q-16 -23 -41 -23h-100z
M373 700q58 0 96.5 35.5t46.5 95.5l43 351q6 60 -23.5 96.5t-86.5 36.5q-58 0 -97 -36.5t-47 -96.5l-43 -351q-6 -60 23.5 -95.5t87.5 -35.5zM1298 -16q-127 0 -192.5 74t-50.5 202l41 334q15 126 99 200t212 74t194.5 -74t51.5 -200l-41 -334q-15 -127 -100.5 -201.5
t-213.5 -74.5zM1946 -16q-129 0 -195 74t-51 202l41 334q15 126 99.5 200t213.5 74q126 0 192.5 -74t51.5 -200l-41 -334q-15 -127 -99.5 -201.5t-211.5 -74.5zM1315 119q59 0 98 35.5t45 95.5l43 350q8 60 -22 96.5t-88 36.5t-96 -36.5t-46 -96.5l-43 -350
q-7 -60 22.5 -95.5t86.5 -35.5zM1962 119q58 0 96.5 35.5t46.5 95.5l43 350q6 60 -23.5 96.5t-86.5 36.5q-58 0 -97 -36.5t-47 -96.5l-43 -350q-6 -60 23.5 -95.5t87.5 -35.5z" />
    <glyph glyph-name="guilsinglleft" unicode="&#x2039;" horiz-adv-x="686" 
d="M506 258q9 -17 2 -28t-27 -11h-149q-26 0 -37 21l-164 313q-13 23 6 45l242 313q13 21 39 21h151q20 0 24.5 -11t-9.5 -28l-240 -309q-7 -10 -2 -17z" />
    <glyph glyph-name="guilsinglright" unicode="&#x203a;" horiz-adv-x="731" 
d="M178 219q-20 0 -24 11t8 28l241 309q7 11 3 17l-164 309q-9 17 -2.5 28t26.5 11h150q26 0 37 -21l163 -313q13 -23 -6 -45l-241 -313q-16 -21 -39 -21h-152z" />
    <glyph glyph-name="fraction" unicode="&#x2044;" horiz-adv-x="448" 
d="M-256 0q-19 0 -22.5 11t8.5 28l964 1372q13 23 41 23h99q19 0 23.5 -11t-7.5 -28l-965 -1372q-16 -23 -41 -23h-100z" />
    <glyph glyph-name="uni2074" unicode="&#x2074;" horiz-adv-x="708" 
d="M729 1235q32 0 29 -33l-10 -76q-3 -32 -35 -32h-27q-12 0 -12 -13l-23 -176q-1 -15 -11 -24t-24 -9h-88q-31 0 -28 33l22 176q0 13 -10 13h-342q-32 0 -29 32l9 62q3 21 12 39l270 481q14 25 39 25h94q17 0 22.5 -10t-3.5 -29l-248 -445q-6 -14 8 -14h184q12 0 15 12
l16 137q1 15 11.5 24t25.5 9h86q32 0 29 -33l-17 -137q-2 -5 1.5 -8.5t9.5 -3.5h24z" />
    <glyph glyph-name="uni2075" unicode="&#x2075;" horiz-adv-x="616" 
d="M670 1270q19 -57 10 -131q-8 -66 -41 -131q-39 -71 -108 -111.5t-156 -40.5q-89 0 -150 45t-80 121q-6 30 -6 57q-1 16 8.5 25.5t24.5 9.5h94q29 0 29 -22l4 -23q6 -36 30 -57t62 -21q69 0 103 60q25 38 30 86q6 50 -6 88q-23 57 -88 57q-69 0 -102 -45q-19 -25 -41 -25
h-103q-15 0 -22 9t-4 24l53 447q6 32 37 32h442q32 0 29 -32l-8 -68q-7 -33 -37 -33h-312q-11 0 -14 -12l-22 -186q0 -15 14 -7q60 31 129 31q73 0 126.5 -38t74.5 -109z" />
    <glyph glyph-name="uni2076" unicode="&#x2076;" horiz-adv-x="632" 
d="M690 1255q10 -48 2 -116q-6 -62 -30 -117q-36 -74 -110.5 -120t-164.5 -46q-88 0 -147 44.5t-80 121.5q-12 49 -4 119l45 366q13 105 92.5 166.5t198.5 61.5q113 0 176 -59.5t51 -157.5l-2 -13q-1 -15 -11 -23.5t-24 -8.5h-90q-31 0 -31 12l2 12q6 44 -19.5 73t-68.5 29
q-50 0 -84.5 -30t-40.5 -82l-14 -111q-2 -8 2.5 -10t11.5 2q57 45 131 45q76 0 133 -42.5t76 -115.5zM516 1061q19 32 23 72q2 14 2 49q-2 11 -9 37q-19 59 -92 59q-72 0 -106 -70q-19 -29 -27 -73q-4 -46 4 -70q6 -34 31.5 -54t63.5 -20q36 0 65.5 19t44.5 51z" />
    <glyph glyph-name="uni2077" unicode="&#x2077;" horiz-adv-x="575" 
d="M238 872q-36 0 -21 37l330 674q3 14 -6 14h-230q-11 0 -14 -12l-6 -61q-1 -15 -11.5 -24t-25.5 -9h-61q-33 0 -27 33l22 176q6 33 37 33h475q14 0 21 -9t6 -24l-10 -82q-3 -24 -12 -39l-334 -680q-13 -27 -41 -27h-92z" />
    <glyph glyph-name="uni2078" unicode="&#x2078;" horiz-adv-x="638" 
d="M680 1231q13 -48 6 -115q-6 -56 -31 -104q-34 -70 -107.5 -113t-164.5 -43q-87 0 -147 40.5t-82 115.5q-16 59 -9 106q6 50 37 111q24 50 74 82q14 10 2 16q-37 37 -49 80q-20 47 -12 94q6 49 34 101q37 67 105 103t158 36q89 0 149 -37.5t80 -104.5q14 -45 8 -94
q-6 -51 -35 -98q-22 -39 -69 -80q-13 -5 -2 -16q40 -26 55 -80zM360 1536q-12 -28 -14 -45q-3 -17 4 -45q8 -31 33.5 -49.5t65.5 -18.5q42 0 73 18.5t43 49.5q15 30 15 45q3 18 -5 45q-16 70 -98 70q-78 0 -117 -70zM506 1049q2 4 16 36q6 14 10 43q3 27 0 54q-6 36 -32 58
t-66 22q-78 0 -117 -80q-10 -23 -14 -54q-3 -24 2 -41q4 -30 6 -36q9 -28 33 -44t57 -16t61.5 16t43.5 42z" />
    <glyph glyph-name="uni2079" unicode="&#x2079;" horiz-adv-x="632" 
d="M713 1569q12 -49 4 -119l-45 -367q-13 -105 -92.5 -166t-198.5 -61q-113 0 -176 59.5t-51 157.5l2 12q1 15 10.5 24t23.5 9h91q30 0 30 -12l-2 -12q-6 -44 19.5 -73.5t68.5 -29.5q50 0 84.5 30.5t40.5 82.5l15 110q2 8 -3 10.5t-12 -1.5q-61 -45 -131 -45q-76 0 -133 42
t-76 115q-10 48 -2 117q6 59 31 117q36 74 110 120t164 46q88 0 147.5 -45t80.5 -121zM539 1382q20 30 24 74q7 42 -2 70q-6 34 -31 53.5t-63 19.5q-36 0 -66 -19t-45 -50q-18 -30 -22 -72q-2 -14 -2 -49q3 -18 8 -37q19 -59 92 -59t107 69z" />
    <glyph glyph-name="franc" unicode="&#x20a3;" horiz-adv-x="1263" 
d="M1346 1262q-7 -33 -37 -33h-666q-12 0 -12 -12l-47 -379q0 -13 10 -13h444q32 0 29 -32l-16 -140q-6 -32 -37 -32h-445q-11 0 -14 -13l-25 -196q0 -13 13 -13h258q29 0 26 -32l-10 -82q-1 -15 -11 -24t-24 -9h-258q-11 0 -14 -12l-25 -207q-7 -33 -36 -33h-166
q-32 0 -29 33l27 207q0 12 -11 12h-102q-32 0 -29 33l11 82q6 32 36 32h101q11 0 14 13l121 989q1 15 11.5 24t25.5 9h874q32 0 29 -33z" />
    <glyph glyph-name="Euro" unicode="&#x20ac;" horiz-adv-x="1261" 
d="M700 188q84 0 145.5 46.5t86.5 125.5q10 33 39 27l162 -29q33 -7 22 -39q-47 -156 -175 -245.5t-304 -89.5q-200 0 -307 120.5t-82 319.5l12 98q0 13 -10 13h-121q-30 0 -27 32l9 64q1 15 10.5 24t23.5 9h119q11 0 14 12l11 82q0 12 -11 12h-118q-32 0 -29 33l8 63
q1 15 11 24t24 9h121q12 0 12 12l12 101q25 199 161.5 318.5t336.5 119.5q179 0 285 -91.5t112 -250.5q0 -15 -8.5 -25.5t-23.5 -11.5l-170 -22q-30 -3 -33 28q-5 77 -55 122.5t-134 45.5q-95 0 -161 -62t-78 -165l-12 -107q-3 -12 10 -12h409q17 0 24 -10t1 -27l-29 -65
q-12 -27 -39 -27h-383q-11 0 -14 -12l-10 -82q0 -12 12 -12h342q17 0 24 -10t1 -27l-29 -66q-12 -26 -39 -26h-315q-12 0 -15 -13l-12 -108q-12 -101 38.5 -163.5t145.5 -62.5z" />
    <glyph glyph-name="uni20BA" unicode="&#x20ba;" horiz-adv-x="1280" 
d="M973 535q8 32 39 32h166q32 0 26 -32q-18 -100 -68 -190.5t-127.5 -163.5t-190 -120t-245.5 -55q-117 -6 -235 -6q-32 0 -29 33l66 534q1 6 -3 9.5t-10 1.5l-155 -46q-15 -5 -25.5 1.5t-11.5 21.5l-12 74q-3 30 26 39l201 57q9 3 12 12l11 94q1 6 -3 9.5t-10 1.5
l-155 -45q-15 -4 -25 2t-12 20l-13 72q-6 29 27 39l201 57q10 3 10 12l49 402q7 33 37 33h166q32 0 29 -33l-41 -330q0 -13 12 -10l276 78q30 9 37 -23l11 -72q6 -28 -27 -38l-318 -93q-12 -3 -12 -12l-12 -92q0 -13 14 -10l275 78q15 5 25.5 -1.5t11.5 -21.5l12 -74
q3 -31 -25 -39l-321 -92q-13 -4 -13 -12l-51 -420q-1 -6 3 -9t12 -1q162 12 265.5 102t129.5 226z" />
    <glyph glyph-name="uni20BD" unicode="&#x20bd;" horiz-adv-x="1390" 
d="M936 598h-315q-12 0 -15 -12l-14 -117q0 -12 10 -12h402q31 0 28 -33l-10 -78q-1 -15 -11.5 -24t-25.5 -9h-399q-15 0 -15 -12l-32 -268q-1 -15 -11.5 -24t-25.5 -9h-166q-32 0 -29 33l33 268q2 5 -1 8.5t-9 3.5h-154q-32 0 -29 33l11 78q1 15 11 24t24 9h155q11 0 14 12
l15 117q0 12 -12 12h-154q-32 0 -29 33l17 127q1 15 10.5 24t23.5 9h156q11 0 14 12l74 600q3 33 35 33h537q188 0 289.5 -117t78.5 -305q-23 -186 -159 -301t-322 -115zM698 1231q-14 0 -14 -12l-51 -416q0 -12 10 -12h293q106 0 173 58t79 159q13 104 -40 163.5t-159 59.5
h-291z" />
    <glyph glyph-name="uni2113" unicode="&#x2113;" horiz-adv-x="995" 
d="M719 215q27 21 45 -2l57 -86q16 -25 -4 -45q-101 -98 -282 -98q-143 0 -213 90.5t-50 249.5l13 100q0 17 -15 8q-38 -24 -51 -31q-29 -19 -39 15l-22 94q-6 28 18 43q87 53 123 78q10 5 10 16l45 383q8 71 37 142.5t75 133t114.5 101t146.5 41.5q121 4 187 -77.5
t51 -211.5q-10 -85 -50 -165.5t-106.5 -152.5t-139.5 -132.5t-171 -126.5q-9 -6 -9 -17l-24 -207q-22 -194 115 -194q77 0 139 51zM539 995l-21 -196q-1 -9 2.5 -10t9.5 4q237 183 258 348q8 64 -14.5 103.5t-71.5 35.5q-57 -6 -101 -77.5t-62 -207.5z" />
    <glyph glyph-name="trademark" unicode="&#x2122;" horiz-adv-x="1320" 
d="M188 1319q-31 0 -28 33l6 49q1 15 11.5 24t25.5 9h467q29 0 26 -33l-6 -49q-1 -15 -11 -24t-24 -9h-161q-13 0 -13 -12l-69 -559q-1 -15 -11 -24t-24 -9h-68q-29 0 -26 33l67 559q3 12 -10 12h-152zM1243 1413q15 21 39 21h72q31 0 28 -33l-79 -653q-7 -33 -37 -33h-68
q-15 0 -22.5 9t-4.5 24l56 452q0 8 -4.5 9.5t-10.5 -5.5l-114 -147q-18 -21 -41 -21h-13q-22 0 -34 21l-82 147q-3 7 -8 5.5t-7 -9.5l-55 -452q-1 -15 -11 -24t-24 -9h-65q-32 0 -29 33l80 653q7 33 37 33h72q22 0 34 -21l113 -205q1 -4 6 -4t8 4z" />
    <glyph glyph-name="uni2126" unicode="&#x2126;" horiz-adv-x="1265" 
d="M102 0q-29 0 -26 33l16 139q1 15 11.5 24t25.5 9h98q8 0 10.5 4t-1.5 10q-106 116 -82 318l51 413q28 224 183.5 362t381.5 138q227 0 349.5 -138t94.5 -362l-49 -413q-24 -200 -161 -318q-6 -6 -4 -10t8 -4h100q15 0 22.5 -9t4.5 -24l-17 -139q-1 -15 -11 -24t-24 -9
h-393q-31 0 -28 33l18 147q3 26 33 35q79 23 141.5 100t75.5 183l55 456q17 132 -49 212.5t-191 80.5q-124 0 -209 -80.5t-102 -212.5l-55 -456q-13 -106 29.5 -183.5t115.5 -101.5q28 -9 25 -35l-19 -145q-1 -15 -10.5 -24t-23.5 -9h-394z" />
    <glyph glyph-name="estimated" unicode="&#x212e;" horiz-adv-x="1685" 
d="M981 1450q209 0 364.5 -95.5t228 -264.5t46.5 -379q0 -9 -33 -9h-1206q-11 0 -14 -12l-50 -397q0 -4 5 -14q78 -108 204 -169t283 -61q181 0 350.5 93.5t270.5 244.5q14 23 40 23h11q38 0 18 -39q-114 -175 -302.5 -281t-395.5 -106q-157 0 -286.5 55t-214 151
t-122.5 231t-18 290q25 211 139 379.5t293 264t389 95.5zM432 1153q-8 -8 -8 -14l-45 -359q0 -12 12 -12h1012q11 0 14 12l43 357q2 7 -4 14q-76 110 -201 171.5t-282 61.5t-297.5 -61t-243.5 -170z" />
    <glyph glyph-name="oneeighth" unicode="&#x215b;" horiz-adv-x="1579" 
d="M340 606q-3 -33 -35 -33h-90q-15 0 -22.5 9t-4.5 24l82 676q3 13 -10 10l-45 -6q-15 -3 -23.5 4.5t-7.5 24.5l9 53q3 26 28 37l49 20q21 9 39 9h101q31 0 28 -33zM1149 1411q16 23 41 23h98q19 0 24 -11t-7 -28l-965 -1372q-13 -23 -41 -23h-100q-19 0 -23 11t8 28z
M1511 358q14 -44 7 -114q-7 -58 -31 -105q-34 -70 -106.5 -112.5t-163.5 -42.5q-89 0 -149.5 40.5t-80.5 114.5q-14 52 -10 107q9 51 39 110q24 50 74 82q13 10 2 17q-37 37 -52 80q-16 43 -12 94q5 48 37 100q76 139 262 139q88 0 147.5 -37t79.5 -104q14 -44 11 -94
q-9 -50 -35 -98q-27 -44 -72 -80q-10 -5 -2 -17q43 -27 55 -80zM1194 664q-13 -23 -16 -46q0 -21 6 -45q6 -30 32 -48.5t66 -18.5q41 0 72 18t43 49q13 27 16 45q3 21 -4 46q-15 69 -98 69t-117 -69zM1339 176q3 7 8.5 18.5t8.5 18.5q4 13 8 43q2 18 2 53q-6 36 -32.5 58
t-65.5 22q-40 0 -71 -22t-46 -58q-10 -23 -14 -53q-3 -22 0 -41q3 -18 8 -37q19 -59 90 -59q67 0 104 57z" />
    <glyph glyph-name="threeeighths" unicode="&#x215c;" horiz-adv-x="1765" 
d="M610 719q-39 -70 -107 -109t-153 -39q-89 0 -149.5 46.5t-79.5 125.5q-9 41 -6 82q3 33 35 33h90q28 0 28 -31q0 -21 4 -45q6 -34 32 -54.5t63 -20.5q65 0 102 55q26 44 35 100q6 64 -12 107q-18 55 -86 55q-22 0 -41 -8q-28 -13 -43 8l-35 53q-16 26 8 47l197 168
q7 4 5 9.5t-10 5.5h-268q-29 0 -26 32l8 70q1 15 11.5 24t25.5 9h448q14 0 22 -9t5 -24l-8 -78q-3 -24 -23 -41l-174 -157q-11 -11 4 -15q95 -19 133 -117q19 -65 8 -143q-7 -69 -43 -139zM1335 1411q16 23 41 23h99q19 0 24 -11t-6 -28l-967 -1372q-13 -23 -39 -23h-102
q-17 0 -21 11t7 28zM1698 358q16 -49 6 -114q-7 -58 -31 -105q-34 -70 -106.5 -112.5t-163.5 -42.5q-87 0 -148 40.5t-81 114.5q-17 59 -9 107q6 49 37 110q24 50 74 82q13 10 2 17q-36 36 -51 80q-18 48 -10 94q6 54 34 100q37 67 104.5 103t157.5 36q88 0 148 -37t82 -104
q14 -45 8 -94q-6 -51 -35 -98q-23 -41 -71 -80q-11 -6 0 -17q41 -27 53 -80zM1380 664q-11 -18 -14 -46q-3 -17 4 -45q6 -30 32 -48.5t66 -18.5q41 0 72 18t45 49q13 40 14 45q3 21 -4 46q-15 69 -98 69t-117 -69zM1526 176q1 1 16 37q8 28 8 43q5 24 2 53q-6 36 -32.5 58
t-65.5 22q-78 0 -117 -80q-10 -23 -14 -53q-3 -22 0 -41q3 -18 8 -37q19 -59 90 -59q68 0 105 57z" />
    <glyph glyph-name="fiveeighths" unicode="&#x215d;" horiz-adv-x="1732" 
d="M1303 1411q13 23 38 23h101q17 0 21.5 -11t-5.5 -28l-964 -1372q-16 -23 -41 -23h-101q-18 0 -22.5 11t6.5 28zM602 711q-39 -72 -107.5 -112t-156.5 -40q-89 0 -148.5 44.5t-80.5 121.5q-7 35 -7 57q-1 16 8.5 25.5t24.5 9.5h94q29 0 29 -22l4 -23q6 -36 30.5 -57
t63.5 -21q64 0 103 60q22 39 30 86q3 53 -8 88q-23 57 -88 57q-69 0 -102 -45q-19 -25 -41 -25h-103q-29 0 -26 33l55 447q3 32 35 32h442q32 0 29 -32l-8 -68q-1 -15 -11.5 -24t-25.5 -9h-311q-13 0 -13 -12l-24 -186q0 -6 4 -8t10 2q59 30 129 30q73 0 126.5 -38
t76.5 -109q16 -60 8 -131q-9 -75 -41 -131zM1665 358q13 -41 6 -114q-7 -58 -31 -105q-34 -70 -107.5 -112.5t-164.5 -42.5q-87 0 -147 40.5t-82 114.5q-14 49 -9 107q4 39 37 110q24 50 74 82q16 9 4 17q-39 36 -51 80q-16 43 -12 94q5 48 37 100q76 139 260 139
q90 0 149.5 -37t79.5 -104q14 -45 8 -94q-6 -48 -33 -98q-28 -46 -71 -80q-13 -6 -2 -17q40 -26 55 -80zM1348 664q-14 -25 -17 -46q-3 -17 4 -45q8 -30 34 -48.5t67 -18.5t71.5 18t42.5 49q15 30 17 45q0 25 -6 46q-15 69 -99 69q-80 0 -114 -69zM1491 176q11 19 16 37
q7 17 11 43q3 26 0 53q-6 36 -32 58t-65 22q-79 0 -118 -80q-12 -26 -15 -53q-2 -16 2 -41q4 -28 8 -37q7 -28 30.5 -43.5t57.5 -15.5q72 0 105 57z" />
    <glyph glyph-name="seveneighths" unicode="&#x215e;" horiz-adv-x="1619" 
d="M334 600q-14 -27 -41 -27h-92q-36 0 -21 37l330 674q4 14 -6 14h-230q-12 0 -12 -12l-8 -61q-1 -15 -11.5 -24t-25.5 -9h-61q-33 0 -27 33l23 176q6 33 36 33h476q29 0 26 -33l-10 -82q-3 -24 -12 -39zM1188 1411q16 23 41 23h100q17 0 22 -11t-5 -28l-965 -1372
q-16 -23 -41 -23h-102q-17 0 -21.5 11t6.5 28zM1552 358q14 -50 7 -114q-10 -60 -31 -105q-34 -70 -108 -112.5t-165 -42.5q-87 0 -148 40.5t-81 114.5q-16 57 -8 107q6 49 37 110q25 51 73 82q14 11 2 17q-37 37 -49 80q-20 47 -12 94q5 45 35 100q37 67 104.5 103
t157.5 36q89 0 149 -37.5t80 -103.5q15 -47 9 -94q-6 -51 -35 -98q-22 -40 -72 -80q-11 -6 0 -17q40 -26 55 -80zM1233 664q-12 -27 -14 -46q-3 -17 4 -45q6 -30 32 -48.5t66 -18.5q41 0 72 18t45 49q13 40 14 45q3 21 -4 46q-15 69 -98 69q-78 0 -117 -69zM1378 176
q5 8 17 37q8 27 10 43q3 26 0 53q-6 36 -32.5 58t-65.5 22q-78 0 -117 -80q-10 -23 -14 -53q-4 -24 2 -41q5 -32 6 -37q19 -59 90 -59q67 0 104 57z" />
    <glyph glyph-name="partialdiff" unicode="&#x2202;" horiz-adv-x="1175" 
d="M995 1272q55 -82 82 -197.5t25 -227.5t-19 -226q-17 -102 -46 -191.5t-78.5 -173t-114 -142.5t-156 -94.5t-199.5 -35.5q-205 0 -313.5 121.5t-81.5 334.5q13 113 62.5 204t121 148t158 86t178.5 27q133 -3 236 -67q8 -3 11.5 0t2.5 10q0 165 -59 266q-58 96 -170 105
q-111 11 -238 -58q-17 -8 -27 -5t-14 20l-37 149q-7 31 23 43q173 86 336 76q203 -9 317 -172zM526 188q241 0 314 371q0 10 -2 14q-30 65 -91 103t-139 37q-105 -2 -187 -75.5t-95 -188.5q-14 -114 42.5 -187.5t157.5 -73.5z" />
    <glyph glyph-name="uni2206" unicode="&#x2206;" horiz-adv-x="1296" 
d="M45 0q-14 0 -21 9t-6 24l19 149q3 24 12 39l637 1188q12 25 39 25h119q27 0 33 -25l346 -1190q4 -14 4 -39l-19 -147q-1 -15 -11.5 -24t-25.5 -9h-1126zM270 219q-3 -7 0.5 -10.5t8.5 -3.5h710q16 0 10 14l-247 891q-1 5 -4 6.5t-6.5 0t-6.5 -6.5z" />
    <glyph glyph-name="product" unicode="&#x220f;" horiz-adv-x="1267" 
d="M1262 1638q31 0 28 -32l-243 -1983q-1 -15 -11.5 -24t-25.5 -9h-166q-32 0 -29 33l221 1798q3 13 -10 13h-502q-11 0 -14 -13l-221 -1798q-3 -33 -35 -33h-168q-14 0 -21 9t-6 24l244 1983q3 32 35 32h924z" />
    <glyph glyph-name="summation" unicode="&#x2211;" horiz-adv-x="1193" 
d="M86 -410q-14 0 -21 9t-6 24l19 150q4 29 14 41l559 819q6 10 0 16l-370 676q-12 23 -9 41l19 150q1 15 11.5 23.5t25.5 8.5h897q31 0 28 -32l-18 -140q-3 -33 -35 -33h-680q-17 0 -10 -14l381 -665q13 -22 -4 -46l-565 -808q-3 -6 -1 -10.5t7 -4.5h682q31 0 28 -33
l-18 -139q-3 -33 -35 -33h-899z" />
    <glyph glyph-name="minus" unicode="&#x2212;" horiz-adv-x="974" 
d="M119 522q-14 0 -21 9t-6 24l17 139q2 15 11.5 24t24.5 9h783q15 0 22 -9t4 -24l-16 -139q-1 -15 -11 -24t-24 -9h-784z" />
    <glyph glyph-name="uni2215" unicode="&#x2215;" horiz-adv-x="1017" 
d="M45 0q-17 0 -21.5 11t5.5 28l852 1370q16 25 41 25h145q17 0 21.5 -11t-5.5 -28l-850 -1370q-16 -25 -40 -25h-148z" />
    <glyph glyph-name="uni2219" unicode="&#x2219;" horiz-adv-x="624" 
d="M319 362q-104 0 -168.5 75.5t-50.5 180.5q12 107 94 180.5t187 73.5q101 0 163.5 -74t49.5 -180q-12 -104 -93.5 -180t-181.5 -76z" />
    <glyph glyph-name="radical" unicode="&#x221a;" horiz-adv-x="1556" 
d="M274 -410q-27 0 -34 27l-179 752q-9 31 23 41l164 53q31 10 37 -21l102 -448q1 -9 6 -9t8 9l609 1601q10 29 41 29h512q14 0 21.5 -9t4.5 -24l-16 -139q-1 -15 -11 -24t-24 -9h-354q-10 0 -15 -10l-684 -1790q-10 -29 -39 -29h-172z" />
    <glyph glyph-name="infinity" unicode="&#x221e;" horiz-adv-x="1501" 
d="M1171 1014q152 0 238.5 -103.5t67.5 -257.5q-19 -156 -130.5 -258t-269.5 -102q-103 0 -175 47.5t-136 144.5q-2 5 -7 5t-9 -5q-177 -192 -349 -192q-143 0 -229.5 105.5t-67.5 258.5q19 151 131 254t261 103q104 0 175.5 -51.5t125.5 -139.5q4 -12 18 2q90 95 174 142
t182 47zM426 479q60 0 111 40t127 130q7 10 2 17q-51 88 -90 124.5t-99 36.5q-76 0 -129.5 -48t-62.5 -122q-9 -76 32 -127t109 -51zM1102 479q80 0 132.5 48t61.5 126q9 77 -30.5 125.5t-112.5 48.5q-65 0 -123.5 -40t-132.5 -128q-6 -9 0 -20q49 -85 93.5 -122.5
t111.5 -37.5z" />
    <glyph glyph-name="integral" unicode="&#x222b;" horiz-adv-x="837" 
d="M2 -410q-34 0 -31 33l17 127q1 15 11 24t24 9h49q86 0 123 36t49 130l157 1147q11 88 31.5 145t52 96t86.5 59.5t123 28.5t174 9q34 0 31 -33l-16 -127q-3 -33 -35 -33h-45q-87 0 -124.5 -36t-49.5 -130l-158 -1147q-10 -73 -24.5 -124t-40 -89.5t-58 -61.5t-84.5 -37.5
t-112.5 -19.5t-149.5 -6z" />
    <glyph glyph-name="approxequal" unicode="&#x2248;" horiz-adv-x="1036" 
d="M743 686q-37 0 -72 10t-54 20t-50 29q-29 19 -45.5 28t-48.5 20.5t-61 11.5q-82 0 -142 -70q-23 -29 -45 -10l-80 63q-23 20 -10 43q44 80 125.5 130.5t167.5 50.5q78 0 164 -54q3 -2 18.5 -12t19.5 -12.5t18 -11t20 -11t19 -8t22.5 -7t22 -3.5t24.5 -2q60 0 123 70
q20 26 45 8l96 -70q22 -17 6 -43q-47 -76 -123.5 -123t-159.5 -47zM690 246q-37 0 -72.5 10t-53.5 19.5t-52 29.5q-94 60 -156 60q-79 0 -139 -70q-23 -29 -45 -10l-82 63q-22 19 -8 43q45 80 125.5 130t167.5 50q35 0 67 -8.5t50 -18t47 -26.5q3 -2 14 -9.5t15 -10t14.5 -9
t15 -9.5t14.5 -8t16.5 -7t16 -5.5t17.5 -5t18 -2.5t20 -1q63 0 125 69q19 24 45 8l97 -69q22 -17 6 -43q-47 -76 -123.5 -123t-159.5 -47z" />
    <glyph glyph-name="notequal" unicode="&#x2260;" horiz-adv-x="974" 
d="M967 780q-6 -32 -37 -32h-271q-10 0 -14 -11l-100 -176q-6 -14 8 -14h352q32 0 29 -33l-19 -139q-3 -33 -34 -33h-449q-11 0 -16 -8l-88 -158q-13 -24 -39 -24h-76q-38 0 -20 38l77 138q8 14 -8 14h-164q-31 0 -28 33l16 139q7 33 37 33h262q11 0 14 10l101 176
q6 15 -8 15h-345q-31 0 -28 32l18 140q1 15 11 23.5t24 8.5h442q11 0 15 11l94 165q14 25 39 25h76q18 0 23.5 -10t-3.5 -29l-84 -147q-6 -15 8 -15h172q32 0 29 -32z" />
    <glyph glyph-name="lessequal" unicode="&#x2264;" horiz-adv-x="974" 
d="M911 328q-2 -19 -13 -26.5t-28 -0.5l-739 367q-21 12 -18 37l18 153q3 24 29 37l829 367q17 7 27 -0.5t8 -26.5l-20 -160q-3 -25 -29 -37l-600 -247q-7 -3 -7.5 -8.5t5.5 -8.5l540 -250q22 -12 19 -37zM877 33q-1 -15 -11.5 -24t-25.5 -9h-783q-15 0 -22 9t-4 24l16 139
q1 15 11 24t24 9h784q14 0 21 -9t6 -24z" />
    <glyph glyph-name="greaterequal" unicode="&#x2265;" horiz-adv-x="974" 
d="M98 301q-17 -7 -27 0.5t-8 26.5l21 159q3 25 29 37l600 250q8 3 8.5 8.5t-6.5 8.5l-539 247q-23 11 -20 37l20 160q1 19 13.5 27t27.5 0l739 -367q22 -12 19 -37l-19 -153q-3 -24 -28 -37zM55 0q-15 0 -22 9t-4 24l16 139q1 15 11 24t24 9h784q14 0 21 -9t6 -24l-17 -139
q-2 -15 -11.5 -24t-24.5 -9h-783z" />
    <glyph glyph-name="lozenge" unicode="&#x25ca;" horiz-adv-x="1040" 
d="M412 -104q-27 0 -35 24l-258 774q-7 23 6 45l450 774q14 25 41 25h107q27 0 35 -25l260 -774q6 -21 -4 -45l-449 -774q-13 -24 -41 -24h-112zM494 162q2 -6 6.5 -6t7.5 6l301 547q2 4 2 16l-166 547q-6 13 -16 0l-299 -547q-5 -10 -2 -16z" />
    <glyph glyph-name="i.loclTRK" horiz-adv-x="464" 
d="M332 1194q-51 0 -79.5 33.5t-21.5 85.5q6 52 42 84.5t87 32.5t78 -32t21 -85t-41 -86t-86 -33zM106 0q-29 0 -26 33l121 981q3 33 35 33h167q14 0 21 -9t6 -24l-121 -981q-3 -33 -35 -33h-168z" />
    <glyph glyph-name="a.alt" horiz-adv-x="1036" 
d="M602 1063q190 0 293 -97.5t84 -250.5l-84 -682q-3 -33 -35 -33h-166q-31 0 -28 33l6 51q1 7 -3 9t-12 -3q-115 -106 -297 -106q-149 0 -233.5 77.5t-65.5 231.5q20 159 139 248.5t316 89.5h211q11 0 14 12l4 47q11 80 -30 124t-133 44q-71 0 -119.5 -25.5t-69.5 -70.5
q-12 -30 -39 -27l-176 23q-32 4 -26 26q33 123 157 201t293 78zM446 172q97 0 174 53t87 135l10 95q3 12 -10 12h-164q-106 0 -172.5 -41.5t-75.5 -116.5q-9 -65 33.5 -101t117.5 -36z" />
    <glyph glyph-name="a.sc" horiz-adv-x="1103" 
d="M819 0q-27 0 -33 27l-24 151q-2 10 -14 10h-424q-12 0 -17 -10l-61 -151q-12 -27 -39 -27h-166q-16 0 -22 9t1 28l498 1118q12 27 39 27h203q28 0 31 -27l223 -1118q6 -37 -31 -37h-164zM397 389q-6 -14 9 -14h305q12 0 12 14l-90 529q-1 5 -4 6.5t-6.5 0t-6.5 -6.5z" />
    <glyph glyph-name="aacute.sc" horiz-adv-x="1103" 
d="M895 1569q20 0 24 -11t-8 -28l-151 -197q-15 -20 -41 -20h-129q-18 0 -23.5 11t4.5 28l127 194q16 23 41 23h156zM819 0q-27 0 -33 27l-24 151q-2 10 -14 10h-424q-12 0 -17 -10l-61 -151q-12 -27 -39 -27h-166q-16 0 -22 9t1 28l498 1118q12 27 39 27h203q28 0 31 -27
l223 -1118q6 -37 -31 -37h-164zM397 389q-6 -14 9 -14h305q12 0 12 14l-90 529q-1 5 -4 6.5t-6.5 0t-6.5 -6.5z" />
    <glyph glyph-name="abreve.sc" horiz-adv-x="1103" 
d="M664 1247q-90 0 -149.5 57t-61.5 144q0 16 10 25.5t24 9.5h64q25 0 31 -31q3 -40 30 -66t66 -26q40 0 73.5 26t47.5 66q12 31 37 31h61q15 0 23.5 -9t5.5 -24q-24 -87 -97.5 -145t-164.5 -58zM819 0q-27 0 -33 27l-24 151q-2 10 -14 10h-424q-12 0 -17 -10l-61 -151
q-12 -27 -39 -27h-166q-16 0 -22 9t1 28l498 1118q12 27 39 27h203q28 0 31 -27l223 -1118q6 -37 -31 -37h-164zM397 389q-6 -14 9 -14h305q12 0 12 14l-90 529q-1 5 -4 6.5t-6.5 0t-6.5 -6.5z" />
    <glyph glyph-name="uni01CE.sc" horiz-adv-x="1103" 
d="M801 1305q-18 -21 -41 -21h-187q-22 0 -34 21l-111 200q-9 17 -1 28t28 11h112q24 0 35 -20l72 -133q2 -5 7 -5t9 5l103 133q17 20 41 20h110q20 0 24.5 -11t-7.5 -28zM819 0q-27 0 -33 27l-24 151q-2 10 -14 10h-424q-12 0 -17 -10l-61 -151q-12 -27 -39 -27h-166
q-16 0 -22 9t1 28l498 1118q12 27 39 27h203q28 0 31 -27l223 -1118q6 -37 -31 -37h-164zM397 389q-6 -14 9 -14h305q12 0 12 14l-90 529q-1 5 -4 6.5t-6.5 0t-6.5 -6.5z" />
    <glyph glyph-name="acircumflex.sc" horiz-adv-x="1103" 
d="M696 1456q-2 4 -6.5 4t-7.5 -4l-104 -131q-17 -20 -39 -20h-119q-19 0 -23 11.5t9 26.5l169 201q15 21 39 21h172q21 0 35 -21l123 -198q9 -15 2 -28t-26 -13h-117q-24 0 -35 20zM819 0q-27 0 -33 27l-24 151q-2 10 -14 10h-424q-12 0 -17 -10l-61 -151q-12 -27 -39 -27
h-166q-16 0 -22 9t1 28l498 1118q12 27 39 27h203q28 0 31 -27l223 -1118q6 -37 -31 -37h-164zM397 389q-6 -14 9 -14h305q12 0 12 14l-90 529q-1 5 -4 6.5t-6.5 0t-6.5 -6.5z" />
    <glyph glyph-name="adieresis.sc" horiz-adv-x="1103" 
d="M492 1325q-55 0 -85.5 35.5t-23.5 91.5q7 57 46 92t95 35q54 0 83 -35t22 -92q-6 -57 -44.5 -92t-92.5 -35zM856 1325q-55 0 -84.5 35t-23.5 92q8 57 46 92t93 35t84.5 -35t23.5 -92q-8 -57 -46 -92t-93 -35zM819 0q-27 0 -33 27l-24 151q-2 10 -14 10h-424
q-12 0 -17 -10l-61 -151q-12 -27 -39 -27h-166q-16 0 -22 9t1 28l498 1118q12 27 39 27h203q28 0 31 -27l223 -1118q6 -37 -31 -37h-164zM397 389q-6 -14 9 -14h305q12 0 12 14l-90 529q-1 5 -4 6.5t-6.5 0t-6.5 -6.5z" />
    <glyph glyph-name="agrave.sc" horiz-adv-x="1103" 
d="M758 1352q7 -17 -1.5 -28t-27.5 -11h-129q-25 0 -35 20l-102 197q-9 17 -2.5 28t26.5 11h156q25 0 35 -23zM819 0q-27 0 -33 27l-24 151q-2 10 -14 10h-424q-12 0 -17 -10l-61 -151q-12 -27 -39 -27h-166q-16 0 -22 9t1 28l498 1118q12 27 39 27h203q28 0 31 -27
l223 -1118q6 -37 -31 -37h-164zM397 389q-6 -14 9 -14h305q12 0 12 14l-90 529q-1 5 -4 6.5t-6.5 0t-6.5 -6.5z" />
    <glyph glyph-name="amacron.sc" horiz-adv-x="1103" 
d="M946 1493q32 0 29 -33l-12 -98q-7 -33 -37 -33h-502q-32 0 -29 33l13 98q2 15 11.5 24t24.5 9h502zM819 0q-27 0 -33 27l-24 151q-2 10 -14 10h-424q-12 0 -17 -10l-61 -151q-12 -27 -39 -27h-166q-16 0 -22 9t1 28l498 1118q12 27 39 27h203q28 0 31 -27l223 -1118
q6 -37 -31 -37h-164zM397 389q-6 -14 9 -14h305q12 0 12 14l-90 529q-1 5 -4 6.5t-6.5 0t-6.5 -6.5z" />
    <glyph glyph-name="aogonek.sc" horiz-adv-x="1132" 
d="M963 -248q31 5 34 -24l2 -64q0 -30 -26 -39q-38 -11 -79 -13.5t-83 6t-72 39t-37 81.5q-16 130 134 248q12 7 7 12q-2 2 -5 2h-19q-27 0 -33 27l-24 151q-2 10 -14 10h-424q-12 0 -17 -10l-61 -151q-12 -27 -39 -27h-166q-16 0 -22 9t1 28l498 1118q12 27 39 27h203
q28 0 31 -27l223 -1118l6 -37h-2q-164 -108 -156 -197q3 -35 31.5 -48t69.5 -3zM397 389q-6 -14 9 -14h305q12 0 12 14l-90 529q-1 5 -4 6.5t-6.5 0t-6.5 -6.5z" />
    <glyph glyph-name="aring.sc" horiz-adv-x="1103" 
d="M670 1288q-92 0 -147 64t-44 157q12 94 82.5 158t161.5 64t146 -64t44 -158q-12 -93 -82.5 -157t-160.5 -64zM709 1620q-45 0 -80 -32t-41 -79q-4 -46 23 -77t71 -31q43 0 79 31.5t42 76.5q6 47 -21.5 79t-72.5 32zM819 0q-27 0 -33 27l-24 151q-2 10 -14 10h-424
q-12 0 -17 -10l-61 -151q-12 -27 -39 -27h-166q-16 0 -22 9t1 28l498 1118q12 27 39 27h203q28 0 31 -27l223 -1118q6 -37 -31 -37h-164zM397 389q-6 -14 9 -14h305q12 0 12 14l-90 529q-1 5 -4 6.5t-6.5 0t-6.5 -6.5z" />
    <glyph glyph-name="atilde.sc" horiz-adv-x="1103" 
d="M606 1409q-50 0 -84 -39q-23 -29 -45 -10l-49 41q-23 17 -6 43q72 123 188 123q24 0 47 -7.5t36.5 -15.5t37.5 -24q54 -39 90 -39q49 0 80 41q25 29 47 10l49 -37q23 -17 7 -45q-42 -63 -95.5 -95t-101.5 -32q-26 0 -51.5 9.5t-37 17t-34.5 24.5q-43 35 -78 35zM819 0
q-27 0 -33 27l-24 151q-2 10 -14 10h-424q-12 0 -17 -10l-61 -151q-12 -27 -39 -27h-166q-16 0 -22 9t1 28l498 1118q12 27 39 27h203q28 0 31 -27l223 -1118q6 -37 -31 -37h-164zM397 389q-6 -14 9 -14h305q12 0 12 14l-90 529q-1 5 -4 6.5t-6.5 0t-6.5 -6.5z" />
    <glyph glyph-name="ae.sc" horiz-adv-x="1630" 
d="M1649 1010q-7 -33 -37 -33h-531q-11 0 -14 -12l-31 -254q0 -13 11 -13h337q32 0 29 -32l-16 -138q-6 -32 -37 -32h-338q-12 0 -12 -13l-33 -266q-3 -12 10 -12h531q14 0 21.5 -9t4.5 -24l-16 -139q-1 -15 -11.5 -24t-25.5 -9h-741q-32 0 -29 33l18 143q0 12 -10 12h-342
q-11 0 -14 -8l-101 -157q-14 -23 -41 -23h-186q-17 0 -21.5 11t5.5 28l708 1120q14 23 41 23h858q32 0 29 -33zM502 389q-6 -14 6 -14h244q12 0 12 12l61 492q2 9 -3 11t-11 -7z" />
    <glyph glyph-name="b.sc" horiz-adv-x="1058" 
d="M850 618q-6 -3 -6 -8t6 -8q146 -82 125 -272q-21 -164 -142.5 -247t-300.5 -83h-432q-29 0 -26 33l137 1116q1 15 11 24t24 9h418q193 0 286 -79t72 -247q-20 -170 -172 -238zM432 977q-11 0 -14 -12l-31 -256q-3 -13 10 -13h224q70 0 118 39t56 101q7 64 -31.5 102.5
t-110.5 38.5h-221zM573 207q71 0 118.5 40t56.5 109q8 65 -31 106.5t-109 41.5h-235q-4 0 -8.5 -3.5t-4.5 -8.5l-32 -273q-3 -12 10 -12h235z" />
    <glyph glyph-name="c.sc" horiz-adv-x="1032" 
d="M481 -14q-198 0 -304 120.5t-81 321.5l41 330q25 199 159.5 318.5t332.5 119.5q197 0 302.5 -115t82.5 -305q-3 -19 -33 -22l-170 -11q-9 -1 -17 0.5t-11.5 4.5t-2.5 6v10q13 103 -35 163.5t-141 63.5q-94 3 -158.5 -60t-76.5 -167l-43 -348q-12 -103 37 -164.5
t143 -61.5q92 0 156 61.5t77 164.5q0 10 9.5 16t23.5 4l166 -8q31 -3 31 -10v-8q-25 -193 -158 -308.5t-330 -115.5z" />
    <glyph glyph-name="cacute.sc" horiz-adv-x="1032" 
d="M565 1327q-19 0 -24.5 11t4.5 28l127 195q16 22 41 22h157q19 0 23 -11t-8 -28l-152 -196q-16 -21 -39 -21h-129zM481 -14q-198 0 -304 120.5t-81 321.5l41 330q25 199 159.5 318.5t332.5 119.5q197 0 302.5 -115t82.5 -305q-3 -19 -33 -22l-170 -11q-9 -1 -17 0.5
t-11.5 4.5t-2.5 6v10q13 103 -35 163.5t-141 63.5q-94 3 -158.5 -60t-76.5 -167l-43 -348q-12 -103 37 -164.5t143 -61.5q92 0 156 61.5t77 164.5q0 10 9.5 16t23.5 4l166 -8q31 -3 31 -10v-8q-25 -193 -158 -308.5t-330 -115.5z" />
    <glyph glyph-name="ccaron.sc" horiz-adv-x="1032" 
d="M547 1298q-23 0 -35 21l-111 201q-9 17 -1 28t28 11h113q22 0 34 -21l72 -133q3 -5 8.5 -5t8.5 5l102 133q18 21 41 21h111q20 0 24 -11t-8 -28l-160 -201q-18 -21 -41 -21h-186zM481 -14q-198 0 -304 120.5t-81 321.5l41 330q25 199 159.5 318.5t332.5 119.5
q197 0 302.5 -115t82.5 -305q-3 -19 -33 -22l-170 -11q-9 -1 -17 0.5t-11.5 4.5t-2.5 6v10q13 103 -35 163.5t-141 63.5q-94 3 -158.5 -60t-76.5 -167l-43 -348q-12 -103 37 -164.5t143 -61.5q92 0 156 61.5t77 164.5q0 10 9.5 16t23.5 4l166 -8q31 -3 31 -10v-8
q-25 -193 -158 -308.5t-330 -115.5z" />
    <glyph glyph-name="ccedilla.sc" horiz-adv-x="1032" 
d="M1012 766q0 -9 -31 -12l-170 -11q-9 -1 -17 0.5t-11.5 4.5t-2.5 6v10q13 103 -35 163.5t-141 63.5q-94 3 -158.5 -60t-76.5 -167l-43 -348q-12 -103 37 -164.5t143 -61.5q92 0 156 61.5t77 164.5q0 10 9.5 16t23.5 4l166 -8q31 -3 31 -10v-8q-22 -176 -136 -288.5
t-286 -131.5q-16 -3 -6 -17q93 -109 51 -223q-19 -51 -57 -81.5t-82 -38.5t-84 -5.5t-76 13.5q-23 9 -17 38l17 64q12 30 41 24q39 -9 70.5 4t44.5 48q28 79 -89 180q-1 1 -3 2l-4 2t-5 2q-138 37 -205 149t-47 277l41 330q25 199 159.5 318.5t332.5 119.5q197 0 302.5 -115
t82.5 -305z" />
    <glyph glyph-name="cdotaccent.sc" horiz-adv-x="1032" 
d="M645 1321q-51 0 -78.5 33t-21.5 86q6 52 42 84t87 32t77.5 -31.5t20.5 -84.5t-41 -86t-86 -33zM481 -14q-198 0 -304 120.5t-81 321.5l41 330q25 199 159.5 318.5t332.5 119.5q197 0 302.5 -115t82.5 -305q-3 -19 -33 -22l-170 -11q-9 -1 -17 0.5t-11.5 4.5t-2.5 6v10
q13 103 -35 163.5t-141 63.5q-94 3 -158.5 -60t-76.5 -167l-43 -348q-12 -103 37 -164.5t143 -61.5q92 0 156 61.5t77 164.5q0 10 9.5 16t23.5 4l166 -8q31 -3 31 -10v-8q-25 -193 -158 -308.5t-330 -115.5z" />
    <glyph glyph-name="d.sc" horiz-adv-x="1050" 
d="M100 0q-29 0 -26 33l137 1116q1 15 11 24t24 9h411q190 0 293.5 -98.5t83.5 -260.5l-57 -465q-20 -162 -147.5 -260t-317.5 -98h-412zM326 217q0 -12 12 -12h209q80 0 136.5 52t68.5 138l49 391q9 86 -34.5 138.5t-125.5 52.5h-209q-11 0 -14 -12z" />
    <glyph glyph-name="eth.sc" horiz-adv-x="1140" 
d="M748 1182q189 0 292.5 -98.5t83.5 -260.5l-57 -465q-20 -162 -147.5 -260t-317.5 -98h-412q-15 0 -22 9t-4 24l59 483q0 12 -12 12h-45q-15 0 -22.5 9t-4.5 24l11 94q2 15 11.5 24t24.5 9h45q12 0 15 12l53 449q7 33 37 33h412zM842 395l47 391q11 86 -33 138.5
t-127 52.5h-207q-14 0 -14 -12l-33 -265q0 -12 10 -12h123q32 0 29 -33l-12 -94q-1 -15 -11 -24t-24 -9h-123q-11 0 -14 -12l-37 -299q0 -12 10 -12h211q79 0 136 52.5t69 137.5z" />
    <glyph glyph-name="dcaron.sc" horiz-adv-x="1050" 
d="M537 1292q-23 0 -35 21l-111 200q-9 17 -1 28t28 11h112q24 0 35 -20l72 -133q1 -5 6 -5t10 5l103 133q17 20 41 20h110q20 0 24.5 -11t-7.5 -28l-160 -200q-18 -21 -41 -21h-186zM100 0q-29 0 -26 33l137 1116q1 15 11 24t24 9h411q190 0 293.5 -98.5t83.5 -260.5
l-57 -465q-20 -162 -147.5 -260t-317.5 -98h-412zM326 217q0 -12 12 -12h209q80 0 136.5 52t68.5 138l49 391q9 86 -34.5 138.5t-125.5 52.5h-209q-11 0 -14 -12z" />
    <glyph glyph-name="dcroat.sc" horiz-adv-x="1140" 
d="M748 1182q189 0 292.5 -98.5t83.5 -260.5l-57 -465q-20 -162 -147.5 -260t-317.5 -98h-412q-15 0 -22 9t-4 24l59 483q0 12 -12 12h-45q-15 0 -22.5 9t-4.5 24l11 94q2 15 11.5 24t24.5 9h45q12 0 15 12l53 449q7 33 37 33h412zM842 395l47 391q11 86 -33 138.5
t-127 52.5h-207q-14 0 -14 -12l-33 -265q0 -12 10 -12h123q32 0 29 -33l-12 -94q-1 -15 -11 -24t-24 -9h-123q-11 0 -14 -12l-37 -299q0 -12 10 -12h211q79 0 136 52.5t69 137.5z" />
    <glyph glyph-name="e.sc" horiz-adv-x="997" 
d="M1014 1008q-1 -15 -11.5 -24t-25.5 -9h-545q-11 0 -14 -12l-31 -252q0 -13 10 -13h357q14 0 21.5 -8.5t4.5 -23.5l-16 -138q-1 -15 -11 -23.5t-24 -8.5h-356q-12 0 -15 -13l-32 -266q0 -12 12 -12h545q31 0 28 -33l-16 -139q-7 -33 -37 -33h-758q-29 0 -26 33l137 1116
q1 15 11 24t24 9h758q15 0 22 -9t4 -24z" />
    <glyph glyph-name="eacute.sc" horiz-adv-x="997" 
d="M862 1589q20 0 24.5 -11t-7.5 -28l-152 -196q-16 -21 -41 -21h-129q-19 0 -24 11t6 28l127 195q16 22 41 22h155zM1014 1008q-1 -15 -11.5 -24t-25.5 -9h-545q-11 0 -14 -12l-31 -252q0 -13 10 -13h357q14 0 21.5 -8.5t4.5 -23.5l-16 -138q-1 -15 -11 -23.5t-24 -8.5
h-356q-12 0 -15 -13l-32 -266q0 -12 12 -12h545q31 0 28 -33l-16 -139q-7 -33 -37 -33h-758q-29 0 -26 33l137 1116q1 15 11 24t24 9h758q15 0 22 -9t4 -24z" />
    <glyph glyph-name="ecaron.sc" horiz-adv-x="997" 
d="M766 1325q-14 -20 -39 -20h-188q-24 0 -35 20l-111 201q-7 17 0.5 28t26.5 11h115q22 0 34 -21l72 -133q1 -5 6 -5t8 5l105 133q18 21 41 21h110q20 0 23.5 -11t-8.5 -28zM1014 1008q-1 -15 -11.5 -24t-25.5 -9h-545q-11 0 -14 -12l-31 -252q0 -13 10 -13h357
q14 0 21.5 -8.5t4.5 -23.5l-16 -138q-1 -15 -11 -23.5t-24 -8.5h-356q-12 0 -15 -13l-32 -266q0 -12 12 -12h545q31 0 28 -33l-16 -139q-7 -33 -37 -33h-758q-29 0 -26 33l137 1116q1 15 11 24t24 9h758q15 0 22 -9t4 -24z" />
    <glyph glyph-name="uni0229.sc" horiz-adv-x="997" 
d="M1014 1008q-1 -15 -11.5 -24t-25.5 -9h-545q-11 0 -14 -12l-31 -252q0 -13 10 -13h357q14 0 21.5 -8.5t4.5 -23.5l-16 -138q-1 -15 -11 -23.5t-24 -8.5h-356q-12 0 -15 -13l-32 -266q0 -12 12 -12h545q31 0 28 -33l-16 -139q-7 -33 -37 -33h-289q-6 0 -9 -5t1 -9
q92 -109 47 -222q-19 -51 -56.5 -81.5t-81 -38.5t-83.5 -5.5t-76 13.5q-25 8 -18 39l18 63q9 31 41 25q39 -10 70.5 3t42.5 48q26 75 -70 164q-6 6 -14 6h-281q-29 0 -26 33l137 1116q1 15 11 24t24 9h758q15 0 22 -9t4 -24z" />
    <glyph glyph-name="ecircumflex.sc" horiz-adv-x="997" 
d="M664 1477q-2 5 -7 5t-10 -5l-102 -131q-18 -21 -41 -21h-117q-20 0 -24 12t10 27l170 201q14 20 39 20h172q21 0 34 -20l123 -199q9 -15 2 -28t-26 -13h-117q-23 0 -35 21zM1014 1008q-1 -15 -11.5 -24t-25.5 -9h-545q-11 0 -14 -12l-31 -252q0 -13 10 -13h357
q14 0 21.5 -8.5t4.5 -23.5l-16 -138q-1 -15 -11 -23.5t-24 -8.5h-356q-12 0 -15 -13l-32 -266q0 -12 12 -12h545q31 0 28 -33l-16 -139q-7 -33 -37 -33h-758q-29 0 -26 33l137 1116q1 15 11 24t24 9h758q15 0 22 -9t4 -24z" />
    <glyph glyph-name="edieresis.sc" horiz-adv-x="997" 
d="M459 1346q-56 0 -86 35t-23 92q6 56 45 91t94 35q54 0 84 -34.5t23 -91.5q-8 -57 -45.5 -92t-91.5 -35zM823 1346q-55 0 -84.5 35t-23.5 92q8 57 46 91.5t93 34.5q56 0 85 -34.5t22 -91.5q-6 -57 -44 -92t-94 -35zM1014 1008q-1 -15 -11.5 -24t-25.5 -9h-545
q-11 0 -14 -12l-31 -252q0 -13 10 -13h357q14 0 21.5 -8.5t4.5 -23.5l-16 -138q-1 -15 -11 -23.5t-24 -8.5h-356q-12 0 -15 -13l-32 -266q0 -12 12 -12h545q31 0 28 -33l-16 -139q-7 -33 -37 -33h-758q-29 0 -26 33l137 1116q1 15 11 24t24 9h758q15 0 22 -9t4 -24z" />
    <glyph glyph-name="edotaccent.sc" horiz-adv-x="997" 
d="M637 1327q-51 0 -78.5 33t-21.5 86q6 52 43 84.5t88 32.5q50 0 77 -32.5t21 -84.5q-6 -53 -42 -86t-87 -33zM1014 1008q-1 -15 -11.5 -24t-25.5 -9h-545q-11 0 -14 -12l-31 -252q0 -13 10 -13h357q14 0 21.5 -8.5t4.5 -23.5l-16 -138q-1 -15 -11 -23.5t-24 -8.5h-356
q-12 0 -15 -13l-32 -266q0 -12 12 -12h545q31 0 28 -33l-16 -139q-7 -33 -37 -33h-758q-29 0 -26 33l137 1116q1 15 11 24t24 9h758q15 0 22 -9t4 -24z" />
    <glyph glyph-name="egrave.sc" horiz-adv-x="997" 
d="M725 1372q6 -17 -2 -28t-27 -11h-129q-25 0 -35 21l-104 196q-8 17 -1 28t26 11h157q26 0 35 -22zM1014 1008q-1 -15 -11.5 -24t-25.5 -9h-545q-11 0 -14 -12l-31 -252q0 -13 10 -13h357q14 0 21.5 -8.5t4.5 -23.5l-16 -138q-1 -15 -11 -23.5t-24 -8.5h-356
q-12 0 -15 -13l-32 -266q0 -12 12 -12h545q31 0 28 -33l-16 -139q-7 -33 -37 -33h-758q-29 0 -26 33l137 1116q1 15 11 24t24 9h758q15 0 22 -9t4 -24z" />
    <glyph glyph-name="emacron.sc" horiz-adv-x="997" 
d="M913 1513q14 0 22 -8.5t5 -23.5l-12 -99q-3 -32 -35 -32h-502q-32 0 -29 32l13 99q1 15 11 23.5t24 8.5h503zM1014 1008q-1 -15 -11.5 -24t-25.5 -9h-545q-11 0 -14 -12l-31 -252q0 -13 10 -13h357q14 0 21.5 -8.5t4.5 -23.5l-16 -138q-1 -15 -11 -23.5t-24 -8.5h-356
q-12 0 -15 -13l-32 -266q0 -12 12 -12h545q31 0 28 -33l-16 -139q-7 -33 -37 -33h-758q-29 0 -26 33l137 1116q1 15 11 24t24 9h758q15 0 22 -9t4 -24z" />
    <glyph glyph-name="eogonek.sc" horiz-adv-x="997" 
d="M1014 1008q-1 -15 -11.5 -24t-25.5 -9h-545q-11 0 -14 -12l-31 -252q0 -13 10 -13h357q14 0 21.5 -8.5t4.5 -23.5l-16 -138q-1 -15 -11 -23.5t-24 -8.5h-356q-12 0 -15 -13l-32 -266q0 -12 12 -12h545q31 0 28 -33l-16 -139q-7 -33 -37 -33h-321q-8 0 -17 -6
q-118 -90 -112 -166q4 -35 33 -48t69 -3q33 7 33 -25l4 -63q-3 -31 -29 -39q-38 -11 -78.5 -13.5t-82.5 5.5t-71.5 38.5t-35.5 81.5q-16 115 102 224q4 3 5 6.5t-1.5 5.5t-7.5 2h-248q-29 0 -26 33l137 1116q1 15 11 24t24 9h758q15 0 22 -9t4 -24z" />
    <glyph glyph-name="f.sc" horiz-adv-x="952" 
d="M1012 1010q-1 -15 -11 -24t-24 -9h-545q-11 0 -14 -12l-31 -254q0 -13 10 -13h357q14 0 21.5 -8.5t4.5 -23.5l-16 -138q-1 -15 -11 -23.5t-24 -8.5h-356q-12 0 -15 -13l-55 -450q-3 -33 -35 -33h-168q-29 0 -26 33l137 1116q1 15 11 24t24 9h755q15 0 22.5 -9t4.5 -24z
" />
    <glyph glyph-name="g.sc" horiz-adv-x="1142" 
d="M539 -14q-220 0 -335 119.5t-89 328.5l39 316q26 208 170 327t364 119q212 0 327.5 -118t90.5 -318q-3 -23 -35 -23h-164q-30 0 -30 11l2 10q13 112 -45 172.5t-172 60.5t-190 -64t-91 -186l-39 -313q-13 -114 47.5 -176t173.5 -62q114 0 187 61.5t88 176.5q0 10 -11 10
h-192q-14 0 -21 9t-6 24l15 121q2 15 11.5 24t24.5 9h400q29 0 26 -33l-18 -158q-26 -209 -169.5 -328.5t-358.5 -119.5z" />
    <glyph glyph-name="gbreve.sc" horiz-adv-x="1142" 
d="M694 1262q-92 0 -151.5 56.5t-61.5 143.5q0 17 10.5 26t26.5 9h64q25 0 28 -31q5 -40 32 -66t65 -26q41 0 73.5 26t46.5 66q12 31 37 31h64q14 0 21.5 -9t4.5 -24q-23 -87 -96.5 -144.5t-163.5 -57.5zM539 -14q-220 0 -335 119.5t-89 328.5l39 316q26 208 170 327
t364 119q212 0 327.5 -118t90.5 -318q-3 -23 -35 -23h-164q-30 0 -30 11l2 10q13 112 -45 172.5t-172 60.5t-190 -64t-91 -186l-39 -313q-13 -114 47.5 -176t173.5 -62q114 0 187 61.5t88 176.5q0 10 -11 10h-192q-14 0 -21 9t-6 24l15 121q2 15 11.5 24t24.5 9h400
q29 0 26 -33l-18 -158q-26 -209 -169.5 -328.5t-358.5 -119.5z" />
    <glyph glyph-name="uni0123.sc" horiz-adv-x="1142" 
d="M539 -14q-220 0 -335 119.5t-89 328.5l39 316q26 208 170 327t364 119q212 0 327.5 -118t90.5 -318q-3 -23 -35 -23h-164q-30 0 -30 11l2 10q13 112 -45 172.5t-172 60.5t-190 -64t-91 -186l-39 -313q-13 -114 47.5 -176t173.5 -62q114 0 187 61.5t88 176.5q0 10 -11 10
h-192q-14 0 -21 9t-6 24l15 121q2 15 11.5 24t24.5 9h400q29 0 26 -33l-18 -158q-26 -209 -169.5 -328.5t-358.5 -119.5zM336 -383q-18 0 -23.5 11t4.5 28l127 194q16 23 41 23h156q20 0 24 -11t-8 -28l-151 -196q-16 -21 -41 -21h-129z" />
    <glyph glyph-name="gdotaccent.sc" horiz-adv-x="1142" 
d="M700 1321q-51 0 -78.5 33t-21.5 86q6 52 42 84t87 32t78 -32t20 -84q-6 -53 -41 -86t-86 -33zM539 -14q-220 0 -335 119.5t-89 328.5l39 316q26 208 170 327t364 119q212 0 327.5 -118t90.5 -318q-3 -23 -35 -23h-164q-30 0 -30 11l2 10q13 112 -45 172.5t-172 60.5
t-190 -64t-91 -186l-39 -313q-13 -114 47.5 -176t173.5 -62q114 0 187 61.5t88 176.5q0 10 -11 10h-192q-14 0 -21 9t-6 24l15 121q2 15 11.5 24t24.5 9h400q29 0 26 -33l-18 -158q-26 -209 -169.5 -328.5t-358.5 -119.5z" />
    <glyph glyph-name="h.sc" horiz-adv-x="1071" 
d="M846 1149q1 15 11.5 24t25.5 9h166q31 0 28 -33l-137 -1116q-1 -15 -11.5 -24t-25.5 -9h-166q-31 0 -28 33l55 448q3 13 -10 13h-381q-12 0 -15 -13l-55 -448q-3 -33 -35 -33h-168q-29 0 -26 33l137 1116q1 15 11 24t24 9h168q14 0 21.5 -9t4.5 -24l-53 -438
q0 -13 10 -13h381q12 0 15 13z" />
    <glyph glyph-name="hbar.sc" horiz-adv-x="1071" 
d="M1208 1020q14 0 22 -9t5 -24l-10 -96q-7 -33 -37 -33h-135q-13 0 -13 -12l-100 -813q-1 -15 -11.5 -24t-25.5 -9h-166q-31 0 -28 33l55 448q3 13 -10 13h-381q-12 0 -15 -13l-55 -448q-3 -33 -35 -33h-168q-29 0 -26 33l100 813q0 12 -10 12h-133q-32 0 -29 33l12 96
q1 15 11 24t24 9h133q12 0 15 12l14 117q1 15 11 24t24 9h168q14 0 21.5 -9t4.5 -24l-14 -117q0 -12 10 -12h383q12 0 12 12l15 117q1 15 11.5 24t25.5 9h166q31 0 28 -33l-14 -117q-3 -12 10 -12h135zM778 698q12 0 15 13l16 135q3 12 -10 12h-381q-12 0 -15 -12l-16 -135
q0 -13 10 -13h381z" />
    <glyph glyph-name="i.sc" horiz-adv-x="448" 
d="M100 0q-29 0 -26 33l137 1116q1 15 11 24t24 9h168q14 0 21.5 -9t4.5 -24l-137 -1116q-3 -33 -35 -33h-168z" />
    <glyph glyph-name="iacute.sc" horiz-adv-x="448" 
d="M266 1333q-18 0 -23 11t5 28l127 195q16 22 41 22h157q19 0 23 -11t-8 -28l-152 -196q-16 -21 -41 -21h-129zM100 0q-29 0 -26 33l137 1116q1 15 11 24t24 9h168q14 0 21.5 -9t4.5 -24l-137 -1116q-3 -33 -35 -33h-168z" />
    <glyph glyph-name="icircumflex.sc" horiz-adv-x="448" 
d="M96 1325q-19 0 -23 12t9 27l170 201q17 20 41 20h170q22 0 35 -20l123 -199q11 -15 3 -28t-28 -13h-115q-25 0 -37 21l-69 131q-3 5 -8.5 5t-8.5 -5l-104 -131q-15 -21 -39 -21h-119zM100 0q-29 0 -26 33l137 1116q1 15 11 24t24 9h168q14 0 21.5 -9t4.5 -24l-137 -1116
q-3 -33 -35 -33h-168z" />
    <glyph glyph-name="idieresis.sc" horiz-adv-x="448" 
d="M170 1346q-56 0 -86.5 35t-24.5 92q7 57 46.5 91.5t95.5 34.5q54 0 82.5 -34.5t21.5 -91.5q-6 -57 -43.5 -92t-91.5 -35zM532 1346q-55 0 -84.5 35t-21.5 92q6 57 43.5 91.5t93.5 34.5q55 0 85 -34.5t24 -91.5q-8 -57 -46.5 -92t-93.5 -35zM100 0q-29 0 -26 33l137 1116
q1 15 11 24t24 9h168q14 0 21.5 -9t4.5 -24l-137 -1116q-3 -33 -35 -33h-168z" />
    <glyph glyph-name="i.sc.loclTRK" horiz-adv-x="448" 
d="M348 1327q-51 0 -79 33.5t-21 85.5q6 52 42 84.5t87 32.5t77.5 -32t20.5 -85t-41 -86t-86 -33zM100 0q-29 0 -26 33l137 1116q1 15 11 24t24 9h168q14 0 21.5 -9t4.5 -24l-137 -1116q-3 -33 -35 -33h-168z" />
    <glyph glyph-name="igrave.sc" horiz-adv-x="448" 
d="M434 1372q7 -17 -1 -28t-27 -11h-130q-24 0 -34 21l-103 196q-9 17 -2 28t27 11h155q26 0 35 -22zM100 0q-29 0 -26 33l137 1116q1 15 11 24t24 9h168q14 0 21.5 -9t4.5 -24l-137 -1116q-3 -33 -35 -33h-168z" />
    </font>
</defs>
</svg>
